Filmbol Forum Film İndir BRRip XviD v Çılgın Hırsız (Despicable Me) - 2010 - TR - BRRip XviD
Bildirimi Kapat
Üyelik alımları açıldı.


Bildirimi Kapat
Mega linklerinin şikayet edilmemesi için global erişime kapatıp sadece yorum yapanlara açıyoruz. Bu linkleri gizleme işlemini mecburen yapıyoruz ve yorum yapmanızın siteye değil size faydası vardır. Teşekkürler yazmayı çok görüp, Random/Spam/Anlamsız mesajlar atarak forumu kirletip Mega linklerini açmaya çalışan kullanıcılara süresiz ban atacağız.

Premium Üyelik Al

Çılgın Hırsız (Despicable Me) - 2010 - TR - BRRip XviD
BroserBros
Çılgın Hırsız (Despicable Me) - 2010 - TR - BRRip XviD
3
277
  • Derecelendirme: 0/5 - 0 oy
  • 1
  • 2
  • 3
  • 4
  • 5
Konuyu Okuyanlar:1 Ziyaretçi
Şuan Online!
Filmin Yayınlanma Tarihi: 2010 
WWW
Şuan Online!
BroserBros Kurucu Admin
*******
Admin








 Çılgın Hırsız



Gru adındaki kafası karışık ve kötü yürekli kişinin en büyük hayali dünyanın uydusu Ay'ı ele geçirmektir. Aslında etrafı barış ve huzurla bezeli, renk renk çiçeklerle çevrili, güleryüzlü komşuluk ilişkilerinin sürdüğü bu varoş semtinde sükuneti bozan tek olgu Gru'nun bu hırslı halidir. Bu banliyöde, bu yaşantıyı bozacak bir sır vardır, bu sır Gru'nun kötü emelleridir. Banliyönün en bakımsız ve çirkin evinde yaşayan Gru, küçük köleleri ile birlikte dünyanın kaderini değiştirecek bu planını uygulamaya sokmak için son hazırlıklarını yapmaktadır. Gru, dünyanın uydusu Ay’ı çalmayı kafaya koymuştur bir kere! Üç küçük yetim olan Margo, Edith ve Agnes, bu habis ruhlu adamla karşılaştıklarında ise, hiç kimsenin göremediği bir ayrıntıyı fark ederler: Gru onlar için potansiyel bir baba adayıdır.

Çılgın Hırsız (2010) (Despicable Me) Filmi Imdb'den 490,000 kişi tarafından oylandı ve 7,6 puan aldı. Bu film için editör puanı 8,5 olarak belirlendi. İyi Seyirler!

Teknik Detaylar

Kod :
General
Complete name                            : /root/Desktop/6/Çılgın.Hırsız.2010.BRRip.XviD.TR.Filmbol.avi
Format                                  : AVI
Format/Info                              : Audio Video Interleave
File size                                : 699 MiB
Duration                                : 1h 34mn
Overall bit rate                        : 1 033 Kbps
Writing library                          : Boilsoft Joiner build 2411/release

Video
ID                                      : 0
Format                                  : MPEG-4 Visual
Format profile                          : Advanced [email protected]
Format settings, BVOP                    : 2
Format settings, QPel                    : No
Format settings, GMC                    : No warppoints
Format settings, Matrix                  : Default (MPEG)
Codec ID                                : XVID
Codec ID/Hint                            : XviD
Duration                                : 1h 34mn
Bit rate                                : 896 Kbps
Width                                    : 656 pixels
Height                                  : 352 pixels
Display aspect ratio                    : 1.85:1
Frame rate                              : 23.976 (23976/1000) fps
Color space                              : YUV
Chroma subsampling                      : 4:2:0
Bit depth                                : 8 bits
Scan type                                : Progressive
Compression mode                        : Lossy
Bits/(Pixel*Frame)                      : 0.162
Stream size                              : 606 MiB (87%)
Writing library                          : XviD 1.2.1 (UTC 2008-12-04)

Audio
ID                                      : 1
Format                                  : MPEG Audio
Format version                          : Version 1
Format profile                          : Layer 3
Mode                                    : Joint stereo
Mode extension                          : MS Stereo
Codec ID                                : 55
Codec ID/Hint                            : MP3
Duration                                : 1h 34mn
Bit rate mode                            : Constant
Bit rate                                : 128 Kbps
Channel(s)                              : 2 channels
Sampling rate                            : 48.0 KHz
Compression mode                        : Lossy
Stream size                              : 86.5 MiB (12%)
Alignment                                : Aligned on interleaves
Interleave, duration                    : 42 ms (1.00 video frame)
Interleave, preload duration            : 480 ms

Film Detayları


 Çılgın Hırsız

 Çılgın Hırsız

 Çılgın Hırsız


Film Fragmanı


Film Detayları



Zip Şifresi: filmbol.org Aşağıdaki butona tıklayarak kopyalabilirsiniz.



Uptobox ile indir

1Fichier ile indir

1Fichier'den İndiremiyor musun? Tıklayın!


Mega linki şuan da gizli. Kullanıma açmak için konuya yorum yapın ve ardından sayfayı yenileyin.

Mega


Bunun için üzgünüz ancak, bu linke sadece premium üyeler erişebilir.

Filmbol Cloud

Şuan Online!
Şuan Online!
BroserBros Kurucu Admin
*******
Admin

22.01.2021 Yönetici Notu:

Kırık linkler kontrol edildi, kaldırıldı ve yenilendi. Tüm linkler tamamen çalışır durumda.
Şuan Offine!
Şuan Offine!
Furkan61 Cezalı Üye

  • Konular0
  • Mesajlar329
güzel
Şuan Offine!
Şuan Offine!
rubsy Uzman Üye
**
Uzman Üye

  • Konular0
  • Mesajlar6
  • Rep puanı 0
güzel


Hızlı Menü: