Filmbol Forum Film İndir 720P v Fury (Hiddet) - 2014 - TR+ORG - 720P | tt2713180
Mega linklerinin şikayet edilmemesi için global erişime kapatıp sadece yorum yapanlara açıyoruz. Bu linkleri gizleme işlemini mecburen yapıyoruz ve yorum yapmanızın siteye değil size faydası vardır. Teşekürler yazmayı çok görüp, Random/Spam mesajlar atarak Mega linklerini açmaya çalışan kullanıcılara önce süresiz ban, devam ederse IP ban atacağız.
Filmbol'da moderatör olmak ister misiniz? Bizimle iletişime geçmek için tıklayın!
Fury (Hiddet) - 2014 - TR+ORG - 720P | tt2713180
BroserBros
Fury (Hiddet) - 2014 - TR+ORG - 720P | tt2713180
7
2297
  • Derecelendirme: 0/5 - 0 oy
  • 1
  • 2
  • 3
  • 4
  • 5
Konuyu Okuyanlar:1 Ziyaretçi
Şuan Online!
Filmin Yayınlanma Tarihi: 2014 
WWW
Şuan Online!
BroserBros Kurucu Admin
*******
Admin



 Fury



Fury, 1945 yılının Nisan ayında, İkinci Dünya Savaşı’nın son günlerinde geçiyor ve Komutan Wardaddy, topçu Boyd Swan, yükleyici Grady Travis, şoför Trini Garcia ve yardımcı şoför Norman’dan oluşan müfrezenin, 300 düşman askeriyle karşılaştığı ve tüm imkansızlıklarla savaşmak zorunda kaldığı 24 saati konu alıyor. Beş askerden oluşan küçük ekip, zırhlı tanklarıyla, Almanya’da savaşın ortasında kalır ve bu ekip bölgede kalan son Amerikan ordusu askerlerinden oluşur. Birlik az sayıda askerden oluşmasının yanı sıra cephane anlamında da bir hayli zor durumdadır. Gruba komuta eden Çavuş Wardaddy’nin Avrupa’nın tamamını yıkıma uğratan bu savaştaki son görevi, askerlerini Nazi birliklerinin kuşatması altında olan bu bölgeden sağ salim çıkarabilmektir. 20. yüzyılın en kanlı senelerinden biri olan 1945 yılında geçen ve müfrezenin geçirdiği bir günü ele alan savaş dramının yönetmeni ve senaristi David Ayer. Filmin başrollerini ise Brad Pitt, Shia LaBeouf ve Logan Lerman paylaşıyor.

Fury (2014) (Hiddet) | tt2713180 Filmi Imdb'den 450,000 kişi tarafından oylandı ve 7,6 puan aldı. Bu film için editör puanı %91 olarak belirlendi. İyi Seyirler!

Teknik Detaylar

Kod :
General
Unique ID                                : 22248629790588907976632312753045663434 (0x10BCEE23C8D4DF6C10908174325C6ECA)
Complete name                            : /home/BroserBros/Desktop/2/Fury.2014.720p.BluRay.x264.TR.ENG.Filmbol.mkv
Format                                   : Matroska
Format version                           : Version 4
File size                                : 1.51 GiB
Duration                                 : 2 h 14 min
Overall bit rate                         : 1 602 kb/s
Movie name                               : Fury - Hiddet - 2014 | Filmbol.org
Encoded date                             : UTC 2021-04-19 09:47:42
Writing application                      : mkvmerge v53.0.0 ('Fool's Gold') 64-bit
Writing library                          : libebml v1.4.1 + libmatroska v1.6.2

Video
ID                                       : 1
Format                                   : AVC
Format/Info                              : Advanced Video Codec
Format profile                           : [email protected]
Format settings                          : CABAC / 4 Ref Frames
Format settings, CABAC                   : Yes
Format settings, Reference frames        : 4 frames
Codec ID                                 : V_MPEG4/ISO/AVC
Duration                                 : 2 h 14 min
Bit rate                                 : 866 kb/s
Width                                    : 1 280 pixels
Height                                   : 536 pixels
Display aspect ratio                     : 2.40:1
Frame rate mode                          : Constant
Frame rate                               : 23.976 (24000/1001) FPS
Original frame rate                      : 23.976 (23976/1000) FPS
Color space                              : YUV
Chroma subsampling                       : 4:2:0
Bit depth                                : 8 bits
Scan type                                : Progressive
Bits/(Pixel*Frame)                       : 0.053
Stream size                              : 834 MiB (54%)
Title                                    : 720P - Filmbol.org
Writing library                          : x264 core 142 r2479 dd79a61
Encoding settings                        : cabac=1 / ref=4 / deblock=1:-1:-1 / analyse=0x3:0x133 / me=umh / subme=9 / psy=1 / psy_rd=1.00:0.15 / mixed_ref=1 / me_range=24 / chroma_me=1 / trellis=2 / 8x8dct=1 / cqm=0 / deadzone=21,11 / fast_pskip=0 / chroma_qp_offset=-3 / threads=48 / lookahead_threads=4 / sliced_threads=0 / nr=0 / decimate=1 / interlaced=0 / bluray_compat=0 / constrained_intra=0 / bframes=3 / b_pyramid=2 / b_adapt=2 / b_bias=0 / direct=3 / weightb=1 / open_gop=0 / weightp=2 / keyint=250 / keyint_min=23 / scenecut=40 / intra_refresh=0 / rc_lookahead=60 / rc=2pass / mbtree=1 / bitrate=866 / ratetol=1.0 / qcomp=0.60 / qpmin=0 / qpmax=69 / qpstep=4 / cplxblur=20.0 / qblur=0.5 / vbv_maxrate=31250 / vbv_bufsize=31250 / nal_hrd=none / filler=0 / ip_ratio=1.40 / aq=1:1.00
Default                                  : Yes
Forced                                   : No
Color range                              : Limited
Color primaries                          : BT.709
Matrix coefficients                      : BT.709

Audio #1
ID                                       : 2
Format                                   : AC-3
Format/Info                              : Audio Coding 3
Commercial name                          : Dolby Digital
Codec ID                                 : A_AC3
Duration                                 : 2 h 14 min
Bit rate mode                            : Constant
Bit rate                                 : 640 kb/s
Channel(s)                               : 6 channels
Channel layout                           : L R C LFE Ls Rs
Sampling rate                            : 48.0 kHz
Frame rate                               : 31.250 FPS (1536 SPF)
Compression mode                         : Lossy
Delay relative to video                  : -83 ms
Stream size                              : 616 MiB (40%)
Title                                    : Türkçe - Filmbol.org
Language                                 : Turkish
Service kind                             : Complete Main
Default                                  : Yes
Forced                                   : Yes

Audio #2
ID                                       : 3
Format                                   : AAC LC
Format/Info                              : Advanced Audio Codec Low Complexity
Codec ID                                 : A_AAC-2
Duration                                 : 2 h 14 min
Bit rate                                 : 93.7 kb/s
Channel(s)                               : 2 channels
Channel layout                           : L R
Sampling rate                            : 48.0 kHz
Frame rate                               : 46.875 FPS (1024 SPF)
Compression mode                         : Lossy
Delay relative to video                  : -83 ms
Stream size                              : 90.3 MiB (6%)
Title                                    : Orjinal Dil - Filmbol.org
Language                                 : English
Default                                  : No
Forced                                   : No

Text
ID                                       : 4
Format                                   : UTF-8
Codec ID                                 : S_TEXT/UTF8
Codec ID/Info                            : UTF-8 Plain Text
Duration                                 : 2 h 5 min
Bit rate                                 : 51 b/s
Count of elements                        : 1218
Stream size                              : 47.4 KiB (0%)
Title                                    : Türkçe - Filmbol.org
Language                                 : Turkish
Default                                  : No
Forced                                   : No

Film Detayları


 Fury

 Fury

 Fury


Film Fragmanı


Film Detayları

Uptobox ile indir

1Fichier ile indir

1Fichier'den İndiremiyor musun? Tıklayın!


Mega linki şuan da gizli. Kullanıma açmak için konuya yorum yapın ve ardından sayfayı yenileyin.

Mega


Bunun için üzgünüz ancak, bu linke sadece premium üyeler erişebilir.

Filmbol Cloud





Şuan Offine!
Şuan Offine!
onurayaz Süper Üye
***
Super Üye

  • Konular0
  • Mesajlar14
  • Rep puanı 0
brad pitt çok başarılı bir oyunculuk çıkarttığı bir film olmuş.aynı zamanda yönetmenlik yaptığı ve bir çok dalda oskar ödülü aldığı bir film.izlemenizi tavsiye ederim.
Şuan Offine!
Şuan Offine!
Husshin Yeni Üye
*
Üye

  • Konular0
  • Mesajlar3
  • Rep puanı 0
.................

.......................................

...............................
        I'm a child man  
Şuan Offine!
Şuan Offine!
a7yr Uzman Üye
**
Uzman Üye

  • Konular0
  • Mesajlar9
  • Rep puanı 0
İyi olmuş
Şuan Online!
Şuan Online!
BroserBros Kurucu Admin
*******
Admin

14.12.2019 Güncelleme Notu:

Linkler yenilendi. Kırık linkler kaldırıldı ve Genel Konu Düzenlemesi Yapıldı
Şuan Offine!
Şuan Offine!
ghostkronos24 Uzman Üye
**
Uzman Üye

  • Konular0
  • Mesajlar13
  • Rep puanı 0
güzel
Şuan Offine!
Şuan Offine!
Omeryuksel256 Uzman Üye
**
Uzman Üye

  • Konular0
  • Mesajlar14
  • Rep puanı 0
crazyyy
Şuan Online!
Şuan Online!
BroserBros Kurucu Admin
*******
Admin

21.04.2021 Yönetici Notu:

Kırık linkler kontrol edildi, kaldırıldı ve yenilendi. Tüm linkler tamamen çalışır durumda.


Hızlı Menü: