Filmbol Forum Film İndir FHD - FULL HD v Lego Filmi (The Lego Movie) - 2014 - TR+ORG - FHD - x265
Bildirimi Kapat
Üyelik alımları açıldı.


Bildirimi Kapat
Mega linklerinin şikayet edilmemesi için global erişime kapatıp sadece yorum yapanlara açıyoruz. Bu linkleri gizleme işlemini mecburen yapıyoruz ve yorum yapmanızın siteye değil size faydası vardır. Teşekkürler yazmayı çok görüp, Random/Spam/Anlamsız mesajlar atarak forumu kirletip Mega linklerini açmaya çalışan kullanıcılara süresiz ban atacağız.

Premium Üyelik Al

Lego Filmi (The Lego Movie) - 2014 - TR+ORG - FHD - x265
BroserBros
Lego Filmi (The Lego Movie) - 2014 - TR+ORG - FHD - x265
0
266
  • Derecelendirme: 0/5 - 0 oy
  • 1
  • 2
  • 3
  • 4
  • 5
Konuyu Okuyanlar:1 Ziyaretçi
Şuan Online!
Filmin Yayınlanma Tarihi: 2014 
WWW
Şuan Online!
BroserBros Kurucu Admin
*******
Admin








 Lego Filmi



Legolar evreninde geçen filmde, sıradan bir adam olan Emmet, beklemediği bir anda dünyayı kurtaran bir kahraman olma şansını yakalar. Legoların yaşadıkları dünya zorba ve kötücül bir lego tarafından tehdit edilmekte ve parçalarına ayrılmaktadır. Bu yıkımı durduracak kişi ise yanlışlıkla olağanüstü MasterBuilder ile karıştırılan Emmet'tir. Emmet bu talihsiz yanlış anlaşılmayı gidermek yerine kahraman olmayı seçer ve dört kişilik bir ekip kurar. Görevleri ise parçalarına ayrılan evrenlerini birleştirerek yapıştırmaktır.

Lego Filmi (2014) (The Lego Movie) Filmi Imdb'den 320,000 kişi tarafından oylandı ve 7,7 puan aldı. Bu film için editör puanı 8,2 olarak belirlendi. İyi Seyirler!

Teknik Detaylar

Kod :
General
Unique ID                                : 336458921360098528072292301668057899520 (0xFD1FA1946189448E95709EB5E3F86200)
Complete name                            : /root/Desktop/Upload List/Lego.Filmi.2014.FHD.BluRay.x265.TR.ENG.Filmbol.mkv
Format                                  : Matroska
Format version                          : Version 4 / Version 2
File size                                : 3.44 GiB
Duration                                : 1h 40mn
Overall bit rate                        : 4 899 Kbps
Movie name                              : Lego Filmi - The Lego Movie - 2014 | Filmbol.org
Encoded date                            : UTC 2020-06-04 14:00:40
Writing application                      : mkvmerge v8.8.0 ('Wind at my back') 64bit
Writing library                          : libebml v1.3.3 + libmatroska v1.4.4

Video
ID                                      : 1
Format                                  : HEVC
Format/Info                              : High Efficiency Video Coding
Codec ID                                : V_MPEGH/ISO/HEVC
Duration                                : 1h 40mn
Bit rate                                : 4 248 Kbps
Width                                    : 1 920 pixels
Height                                  : 800 pixels
Display aspect ratio                    : 2.40:1
Frame rate mode                          : Constant
Frame rate                              : 23.976 (24000/1001) fps
Bits/(Pixel*Frame)                      : 0.115
Stream size                              : 2.98 GiB (87%)
Title                                    : FHD x265 - Filmbol.org
Default                                  : Yes
Forced                                  : No

Audio #1
ID                                      : 2
Format                                  : AC-3
Format/Info                              : Audio Coding 3
Mode extension                          : CM (complete main)
Format settings, Endianness              : Big
Codec ID                                : A_AC3
Duration                                : 1h 40mn
Bit rate mode                            : Constant
Bit rate                                : 448 Kbps
Channel(s)                              : 6 channels
Channel positions                        : Front: L C R, Side: L R, LFE
Sampling rate                            : 48.0 KHz
Frame rate                              : 31.250 fps (1536 spf)
Compression mode                        : Lossy
Stream size                              : 322 MiB (9%)
Title                                    : İngilizce 5.1 - Filmbol.org
Language                                : English
Default                                  : Yes
Forced                                  : No

Audio #2
ID                                      : 3
Format                                  : AC-3
Format/Info                              : Audio Coding 3
Format profile                          : Dolby Digital
Mode extension                          : CM (complete main)
Format settings, Endianness              : Big
Codec ID                                : A_AC3
Duration                                : 1h 40mn
Bit rate mode                            : Constant
Bit rate                                : 192 Kbps
Channel(s)                              : 2 channels
Channel positions                        : Front: L R
Sampling rate                            : 48.0 KHz
Frame rate                              : 31.250 fps (1536 spf)
Compression mode                        : Lossy
Stream size                              : 138 MiB (4%)
Title                                    : Türkçe - Filmbol.org
Language                                : Turkish
Default                                  : No
Forced                                  : No

Text #1
ID                                      : 4
Format                                  : UTF-8
Codec ID                                : S_TEXT/UTF8
Codec ID/Info                            : UTF-8 Plain Text
Duration                                : 1h 34mn
Bit rate                                : 86 bps
Count of elements                        : 1392
Stream size                              : 59.5 KiB (0%)
Title                                    : Türkçe Altyazı
Default                                  : Yes
Forced                                  : No

Text #2
ID                                      : 5
Format                                  : VobSub
Muxing mode                              : zlib
Codec ID                                : S_VOBSUB
Codec ID/Info                            : Picture based subtitle format used on DVDs
Duration                                : 1h 39mn
Bit rate                                : 9 241 bps
Count of elements                        : 2154
Stream size                              : 6.60 MiB (0%)
Title                                    : english
Language                                : English
Default                                  : No
Forced                                  : No

Film Detayları


 Lego Filmi

 Lego Filmi

 Lego Filmi


Film Fragmanı


Film Detayları



Zip Şifresi: filmbol.org Aşağıdaki butona tıklayarak kopyalabilirsiniz.


Mega linki şuan da gizli. Kullanıma açmak için konuya yorum yapın ve ardından sayfayı yenileyin.

Mega


Bunun için üzgünüz ancak, bu linke sadece premium üyeler erişebilir.

Filmbol Cloud



Hızlı Menü: