Filmbol Forum Film İndir BRRip XviD v Lego Filmi (The Lego Movie) - 2014 - TR - BRRip XviD
Bildirimi Kapat
Üyelik alımları açıldı.


Bildirimi Kapat
Mega linklerinin şikayet edilmemesi için global erişime kapatıp sadece yorum yapanlara açıyoruz. Bu linkleri gizleme işlemini mecburen yapıyoruz ve yorum yapmanızın siteye değil size faydası vardır. Teşekkürler yazmayı çok görüp, Random/Spam/Anlamsız mesajlar atarak forumu kirletip Mega linklerini açmaya çalışan kullanıcılara süresiz ban atacağız.

Premium Üyelik Al

Lego Filmi (The Lego Movie) - 2014 - TR - BRRip XviD
BroserBros
Lego Filmi (The Lego Movie) - 2014 - TR - BRRip XviD
2
287
  • Derecelendirme: 0/5 - 0 oy
  • 1
  • 2
  • 3
  • 4
  • 5
Konuyu Okuyanlar:1 Ziyaretçi
Şuan Online!
Filmin Yayınlanma Tarihi: 2014 
WWW
Şuan Online!
BroserBros Kurucu Admin
*******
Admin








 Lego Filmi



Legolar evreninde geçen filmde, sıradan bir adam olan Emmet, beklemediği bir anda dünyayı kurtaran bir kahraman olma şansını yakalar. Legoların yaşadıkları dünya zorba ve kötücül bir lego tarafından tehdit edilmekte ve parçalarına ayrılmaktadır. Bu yıkımı durduracak kişi ise yanlışlıkla olağanüstü MasterBuilder ile karıştırılan Emmet'tir. Emmet bu talihsiz yanlış anlaşılmayı gidermek yerine kahraman olmayı seçer ve dört kişilik bir ekip kurar. Görevleri ise parçalarına ayrılan evrenlerini birleştirerek yapıştırmaktır.

Lego Filmi (2014) (The Lego Movie) Filmi Imdb'den 320,000 kişi tarafından oylandı ve 7,7 puan aldı. Bu film için editör puanı 8,2 olarak belirlendi. İyi Seyirler!

Teknik Detaylar

Kod :
General
Complete name                            : /root/Desktop/Upload List/Lego.Filmi.2014.BRRip.XViD.TR.Filmbol.avi
Format                                  : AVI
Format/Info                              : Audio Video Interleave
File size                                : 702 MiB
Duration                                : 1h 40mn
Overall bit rate                        : 976 Kbps

Video
ID                                      : 0
Format                                  : MPEG-4 Visual
Format profile                          : Advanced [email protected]
Format settings, BVOP                    : 2
Format settings, QPel                    : No
Format settings, GMC                    : No warppoints
Format settings, Matrix                  : Default (H.263)
Codec ID                                : XVID
Codec ID/Hint                            : XviD
Duration                                : 1h 40mn
Bit rate                                : 835 Kbps
Width                                    : 656 pixels
Height                                  : 272 pixels
Display aspect ratio                    : 2.40:1
Frame rate                              : 23.976 (24000/1001) fps
Color space                              : YUV
Chroma subsampling                      : 4:2:0
Bit depth                                : 8 bits
Scan type                                : Progressive
Compression mode                        : Lossy
Bits/(Pixel*Frame)                      : 0.195
Stream size                              : 601 MiB (86%)
Writing library                          : XviD 1.2.1 (UTC 2008-12-04)

Audio
ID                                      : 1
Format                                  : MPEG Audio
Format version                          : Version 1
Format profile                          : Layer 3
Mode                                    : Joint stereo
Mode extension                          : MS Stereo
Codec ID                                : 55
Codec ID/Hint                            : MP3
Duration                                : 1h 40mn
Bit rate mode                            : Constant
Bit rate                                : 128 Kbps
Channel(s)                              : 2 channels
Sampling rate                            : 48.0 KHz
Compression mode                        : Lossy
Stream size                              : 92.1 MiB (13%)
Alignment                                : Aligned on interleaves
Interleave, duration                    : 24 ms (0.58 video frame)
Interleave, preload duration            : 984 ms
Title                                    : lego
Writing library                          : LAME3.99r
Encoding settings                        : -m j -V 4 -q 2 -lowpass 17 -b 128-m j -V 4 -q 2 -lowpass 17 -b 128-m j -V 4 -q 2 -lowpass 17 -b 128

Film Detayları


 Lego Filmi

 Lego Filmi

 Lego Filmi


Film Fragmanı


Film Detayları



Zip Şifresi: filmbol.org Aşağıdaki butona tıklayarak kopyalabilirsiniz.



Uptobox ile indir

1Fichier ile indir

1Fichier'den İndiremiyor musun? Tıklayın!


Mega linki şuan da gizli. Kullanıma açmak için konuya yorum yapın ve ardından sayfayı yenileyin.

Mega


Bunun için üzgünüz ancak, bu linke sadece premium üyeler erişebilir.

Filmbol Cloud

Şuan Online!
Şuan Online!
BroserBros Kurucu Admin
*******
Admin

22.01.2021 Yönetici Notu:

Kırık linkler kontrol edildi, kaldırıldı ve yenilendi. Tüm linkler tamamen çalışır durumda.
Şuan Offine!
Şuan Offine!
Furkan61 Cezalı Üye

  • Konular0
  • Mesajlar329
güzel


Hızlı Menü: