Filmbol Forum Film İndir FHD - FULL HD v Nuh: Büyük Tufan (Noah) - 2014 - TR+ORG - FHD - x265-10Bit
Bildirimi Kapat
Üyelik alımları açıldı.


Bildirimi Kapat
Mega linklerinin şikayet edilmemesi için global erişime kapatıp sadece yorum yapanlara açıyoruz. Bu linkleri gizleme işlemini mecburen yapıyoruz ve yorum yapmanızın siteye değil size faydası vardır. Teşekkürler yazmayı çok görüp, Random/Spam/Anlamsız mesajlar atarak forumu kirletip Mega linklerini açmaya çalışan kullanıcılara süresiz ban atacağız.

Premium Üyelik Al

Nuh: Büyük Tufan (Noah) - 2014 - TR+ORG - FHD - x265-10Bit
BroserBros
Nuh: Büyük Tufan (Noah) - 2014 - TR+ORG - FHD - x265-10Bit
0
277
  • Derecelendirme: 0/5 - 0 oy
  • 1
  • 2
  • 3
  • 4
  • 5
Konuyu Okuyanlar:1 Ziyaretçi
Şuan Online!
Filmin Yayınlanma Tarihi: 2014 
WWW
Şuan Online!
BroserBros Kurucu Admin
*******
Admin








 Nuh: Büyük Tufan



Kabil'in soyundan gelen insanoğlu, kuşaklardır Yaradan'ın çizdiği iyilik yolundan sapmış, dünyanın tüm güzelliklerini ve nimetlerini sonuna kadar emip tüketerek yeryüzünü yaşanmaz hale getirmiştir. Dahası bir parça et için her türlü ahlaksızlık, hırsızlık, cinayet ve kaos normal hale gelmiştir. İnsanlığın bu sefil hali karşısında Nuh rüyasında, Yaradan'ın kendisini yaşanacak büyük bir tufana karşı uyardığını görür. Yaradan ondan büyük bir gemi inşa etmesini ve yeryüzünde yaşayan tüm hayvan cinslerinden bir çift almasını emreder. Bu gemi aynı zamanda ailesinin de tek kurtuluşu olacaktır. Tufanın yaklaşmakta olduğunu öğrenen sapkın insanoğlu ise geminin içine girmek için Nuh'a karşı saldırıya geçecektir....

Nuh: Büyük Tufan (2014) (Noah) Filmi Imdb'den 240,000 kişi tarafından oylandı ve 5,8 puan aldı. Bu film için editör puanı 6,5 olarak belirlendi. İyi Seyirler!

Teknik Detaylar

Kod :
General
Unique ID                                : 217311757632373905009511961460268020 (0x29DA4BFF5952775C6A2F497B98DBF4)
Complete name                            : /root/Desktop/asd/Nuh.Büyük.Tufan.2014.FHD.BluRay.x265.10Bit.TR.ENG.Filmbol.mkv
Format                                  : Matroska
Format version                          : Version 4 / Version 2
File size                                : 5.96 GiB
Duration                                : 2h 17mn
Overall bit rate                        : 6 192 Kbps
Movie name                              : Nuh: Büyük Tufah - Noah - 2014 | Filmbol.org
Encoded date                            : UTC 2020-06-03 14:58:59
Writing application                      : mkvmerge v8.8.0 ('Wind at my back') 64bit
Writing library                          : libebml v1.3.3 + libmatroska v1.4.4

Video
ID                                      : 1
Format                                  : HEVC
Format/Info                              : High Efficiency Video Coding
Format profile                          : Main [email protected]@Main
Codec ID                                : V_MPEGH/ISO/HEVC
Duration                                : 2h 17mn
Bit rate                                : 4 962 Kbps
Width                                    : 1 920 pixels
Height                                  : 1 040 pixels
Display aspect ratio                    : 1.85:1
Frame rate mode                          : Constant
Frame rate                              : 23.976 (24000/1001) fps
Color space                              : YUV
Chroma subsampling                      : 4:2:0
Bit depth                                : 10 bits
Bits/(Pixel*Frame)                      : 0.104
Stream size                              : 4.78 GiB (80%)
Title                                    : FHD - Filmbol.org
Writing library                          : x265 2.8+70-33a782b23f2c:[Windows][GCC 8.2.0][64 bit] 10bit
Encoding settings                        : cpuid=1111039 / frame-threads=3 / numa-pools=8 / wpp / no-pmode / no-pme / no-psnr / no-ssim / log-level=2 / input-csp=1 / input-res=1920x1040 / interlace=0 / total-frames=198357 / level-idc=0 / high-tier=1 / uhd-bd=0 / ref=4 / no-allow-non-conformance / no-repeat-headers / annexb / no-aud / no-hrd / info / hash=0 / no-temporal-layers / open-gop / min-keyint=23 / keyint=250 / gop-lookahead=0 / bframes=4 / b-adapt=2 / b-pyramid / bframe-bias=0 / rc-lookahead=25 / lookahead-slices=4 / scenecut=40 / radl=0 / no-intra-refresh / ctu=64 / min-cu-size=8 / rect / no-amp / max-tu-size=32 / tu-inter-depth=1 / tu-intra-depth=1 / limit-tu=0 / rdoq-level=2 / dynamic-rd=0.00 / no-ssim-rd / signhide / no-tskip / nr-intra=0 / nr-inter=0 / no-constrained-intra / strong-intra-smoothing / max-merge=3 / limit-refs=3 / limit-modes / me=3 / subme=3 / merange=57 / temporal-mvp / weightp / no-weightb / no-analyze-src-pics / deblock=0:0 / sao / no-sao-non-deblock / rd=4 / no-early-skip / rskip / no-fast-intra / no-tskip-fast / no-cu-lossless / no-b-intra / no-splitrd-skip / rdpenalty=0 / psy-rd=2.00 / psy-rdoq=1.00 / no-rd-refine / no-lossless / cbqpoffs=0 / crqpoffs=0 / rc=abr / bitrate=4964 / qcomp=0.60 / qpstep=4 / stats-write=0 / stats-read=2 / cplxblur=20.0 / qblur=0.5 / ipratio=1.40 / pbratio=1.30 / aq-mode=3 / aq-strength=1.00 / cutree / zone-count=0 / no-strict-cbr / qg-size=32 / no-rc-grain / qpmax=69 / qpmin=0 / no-const-vbv / sar=0 / overscan=0 / videoformat=5 / range=0 / colorprim=2 / transfer=2 / colormatrix=2 / chromaloc=0 / display-window=0 / max-cll=0,0 / min-luma=0 / max-luma=1023 / log2-max-poc-lsb=8 / vui-timing-info / vui-hrd-info / slices=1 / no-opt-qp-pps / no-opt-ref-list-length-pps / multi-pass-opt-rps / scenecut-bias=0.05 / no-opt-cu-delta-qp / aq-motion / no-hdr / no-hdr-opt / no-dhdr10-opt / no-idr-recovery-sei / analysis-reuse-level=5 / scale-factor=0 / refine-intra=0 / refine-inter=0 / refine-mv=0 / no-limit-sao / ctu-info=0 / no-lowpass-dct / refine-mv-type=0 / copy-pic=1 / max-ausize-factor=1.0 / no-dynamic-refine / no-single-sei
Default                                  : Yes
Forced                                  : No

Audio #1
ID                                      : 2
Format                                  : AC-3
Format/Info                              : Audio Coding 3
Mode extension                          : CM (complete main)
Format settings, Endianness              : Big
Codec ID                                : A_AC3
Duration                                : 2h 17mn
Bit rate mode                            : Constant
Bit rate                                : 640 Kbps
Channel(s)                              : 6 channels
Channel positions                        : Front: L C R, Side: L R, LFE
Sampling rate                            : 48.0 KHz
Frame rate                              : 31.250 fps (1536 spf)
Compression mode                        : Lossy
Stream size                              : 631 MiB (10%)
Title                                    : Türkçe - Filmbol.org
Default                                  : Yes
Forced                                  : Yes

Audio #2
ID                                      : 3
Format                                  : AAC
Format/Info                              : Advanced Audio Codec
Format profile                          : LC
Codec ID                                : A_AAC
Duration                                : 2h 17mn
Bit rate                                : 576 Kbps
Channel(s)                              : 8 channels
Channel positions                        : Front: L C R, Side: 4, LFE
Sampling rate                            : 48.0 KHz
Frame rate                              : 46.875 fps (1024 spf)
Compression mode                        : Lossy
Delay relative to video                  : 20ms
Stream size                              : 575 MiB (9%)
Title                                    : İngilizce - Filmbol.org
Language                                : English
Default                                  : No
Forced                                  : No

Text #1
ID                                      : 4
Format                                  : UTF-8
Codec ID                                : S_TEXT/UTF8
Codec ID/Info                            : UTF-8 Plain Text
Duration                                : 2h 10mn
Bit rate                                : 38 bps
Count of elements                        : 995
Stream size                              : 36.9 KiB (0%)
Title                                    : Türkçe Altyazı
Default                                  : No
Forced                                  : No

Text #2
ID                                      : 5
Format                                  : VobSub
Muxing mode                              : zlib
Codec ID                                : S_VOBSUB
Codec ID/Info                            : Picture based subtitle format used on DVDs
Duration                                : 2h 9mn
Bit rate                                : 3 961 bps
Count of elements                        : 1448
Stream size                              : 3.67 MiB (0%)
Language                                : English
Default                                  : No
Forced                                  : No

Film Detayları


 Nuh: Büyük Tufan

 Nuh: Büyük Tufan

 Nuh: Büyük Tufan


Film Fragmanı


Film Detayları



Zip Şifresi: filmbol.org Aşağıdaki butona tıklayarak kopyalabilirsiniz.


Mega linki şuan da gizli. Kullanıma açmak için konuya yorum yapın ve ardından sayfayı yenileyin.

Mega


Bunun için üzgünüz ancak, bu linke sadece premium üyeler erişebilir.

Filmbol Cloud



Hızlı Menü: