Filmbol Forum Film İndir FHD - FULL HD v Hayat Kitabı (The Book of Life) - 2014 - TR+ORG - FHD - x265
Bildirimi Kapat
Üyelik alımları açıldı.


Bildirimi Kapat
Mega linklerinin şikayet edilmemesi için global erişime kapatıp sadece yorum yapanlara açıyoruz. Bu linkleri gizleme işlemini mecburen yapıyoruz ve yorum yapmanızın siteye değil size faydası vardır. Teşekkürler yazmayı çok görüp, Random/Spam/Anlamsız mesajlar atarak forumu kirletip Mega linklerini açmaya çalışan kullanıcılara süresiz ban atacağız.

Premium Üyelik Al

Hayat Kitabı (The Book of Life) - 2014 - TR+ORG - FHD - x265
BroserBros
Hayat Kitabı (The Book of Life) - 2014 - TR+ORG - FHD - x265
0
286
  • Derecelendirme: 0/5 - 0 oy
  • 1
  • 2
  • 3
  • 4
  • 5
Konuyu Okuyanlar:1 Ziyaretçi
Şuan Online!
Filmin Yayınlanma Tarihi: 2014 
WWW
Şuan Online!
BroserBros Kurucu Admin
*******
Admin








 Hayat Kitabı



Müzede tur rehberi görevi yapmakta olan Mary Beth, normal çocuklar için normal bir müze turu hazırlar. Fakat çocuklar şımarık olduğunda onlara özel olarak gizli bir odaya götürür ve burada yer alan Hayat Kitabı eserine göz atlamalarını sağlar. Kitap o kadar geniş bir hikaye yelpazesine sahiptir ki, bu şımarık çocukların bile ilgisini çekmeyi başarır...

Hayat Kitabı (2014) (The Book of Life) Filmi Imdb'den 65,000 kişi tarafından oylandı ve 7,3 puan aldı. Bu film için editör puanı 6,5 olarak belirlendi. İyi Seyirler!

Teknik Detaylar

Kod :
General
Unique ID                                : 313816752132175328978186337875037043984 (0xEC16E872916E71397299618EC9D0BD10)
Complete name                            : /root/Desktop/1/Hayat.Kitabı.2014.FHD.BluRay.x265.10Bit.TR.ENG.Filmbol.mkv
Format                                  : Matroska
Format version                          : Version 4 / Version 2
File size                                : 3.69 GiB
Duration                                : 1h 35mn
Overall bit rate                        : 5 544 Kbps
Movie name                              : Hayat Kitabı - The Book of Life - 2014 | Filmbol.org
Encoded date                            : UTC 2020-05-29 13:58:17
Writing application                      : mkvmerge v8.8.0 ('Wind at my back') 64bit
Writing library                          : libebml v1.3.3 + libmatroska v1.4.4

Video
ID                                      : 1
Format                                  : HEVC
Format/Info                              : High Efficiency Video Coding
Format profile                          : Main [email protected]@Main
Codec ID                                : V_MPEGH/ISO/HEVC
Duration                                : 1h 35mn
Bit rate                                : 4 999 Kbps
Width                                    : 1 920 pixels
Height                                  : 804 pixels
Display aspect ratio                    : 2.40:1
Frame rate mode                          : Constant
Frame rate                              : 23.976 (24000/1001) fps
Color space                              : YUV
Chroma subsampling                      : 4:2:0
Bit depth                                : 10 bits
Bits/(Pixel*Frame)                      : 0.135
Stream size                              : 3.33 GiB (90%)
Title                                    : FHD - Filmbol.org
Writing library                          : x265 2.8+19-bcdc610cf5f0:[Windows][GCC 7.3.0][64 bit] 10bit
Encoding settings                        : cpuid=1111039 / frame-threads=3 / numa-pools=8 / wpp / no-pmode / no-pme / no-psnr / no-ssim / log-level=2 / input-csp=1 / input-res=1920x804 / interlace=0 / total-frames=137256 / level-idc=0 / high-tier=1 / uhd-bd=0 / ref=3 / no-allow-non-conformance / no-repeat-headers / annexb / no-aud / no-hrd / info / hash=0 / no-temporal-layers / open-gop / min-keyint=23 / keyint=250 / gop-lookahead=0 / bframes=4 / b-adapt=2 / b-pyramid / bframe-bias=0 / rc-lookahead=20 / lookahead-slices=5 / scenecut=40 / radl=0 / no-intra-refresh / ctu=64 / min-cu-size=8 / no-rect / no-amp / max-tu-size=32 / tu-inter-depth=1 / tu-intra-depth=1 / limit-tu=0 / rdoq-level=0 / dynamic-rd=0.00 / no-ssim-rd / signhide / no-tskip / nr-intra=0 / nr-inter=0 / no-constrained-intra / strong-intra-smoothing / max-merge=2 / limit-refs=3 / no-limit-modes / me=1 / subme=2 / merange=57 / temporal-mvp / weightp / no-weightb / no-analyze-src-pics / deblock=0:0 / sao / no-sao-non-deblock / rd=3 / no-early-skip / rskip / no-fast-intra / no-tskip-fast / no-cu-lossless / no-b-intra / no-splitrd-skip / rdpenalty=0 / psy-rd=2.00 / psy-rdoq=0.00 / no-rd-refine / no-lossless / cbqpoffs=0 / crqpoffs=0 / rc=abr / bitrate=5000 / qcomp=0.60 / qpstep=4 / stats-write=0 / stats-read=2 / cplxblur=20.0 / qblur=0.5 / ipratio=1.40 / pbratio=1.30 / aq-mode=2 / aq-strength=1.00 / cutree / zone-count=0 / no-strict-cbr / qg-size=32 / no-rc-grain / qpmax=69 / qpmin=0 / no-const-vbv / sar=0 / overscan=0 / videoformat=5 / range=0 / colorprim=2 / transfer=2 / colormatrix=2 / chromaloc=0 / display-window=0 / max-cll=0,0 / min-luma=0 / max-luma=1023 / log2-max-poc-lsb=8 / vui-timing-info / vui-hrd-info / slices=1 / no-opt-qp-pps / no-opt-ref-list-length-pps / multi-pass-opt-rps / scenecut-bias=0.05 / no-opt-cu-delta-qp / aq-motion / no-hdr / no-hdr-opt / no-dhdr10-opt / no-idr-recovery-sei / analysis-reuse-level=5 / scale-factor=0 / refine-intra=0 / refine-inter=0 / refine-mv=0 / no-limit-sao / ctu-info=0 / no-lowpass-dct / refine-mv-type=0 / copy-pic=1 / max-ausize-factor=1.0 / no-dynamic-refine / no-single-sei
Default                                  : Yes
Forced                                  : No

Audio #1
ID                                      : 2
Format                                  : AC-3
Format/Info                              : Audio Coding 3
Mode extension                          : CM (complete main)
Format settings, Endianness              : Big
Codec ID                                : A_AC3
Duration                                : 1h 35mn
Bit rate mode                            : Constant
Bit rate                                : 448 Kbps
Channel(s)                              : 6 channels
Channel positions                        : Front: L C R, Side: L R, LFE
Sampling rate                            : 48.0 KHz
Frame rate                              : 31.250 fps (1536 spf)
Compression mode                        : Lossy
Stream size                              : 306 MiB (8%)
Title                                    : Türkçe - Filmbol.org
Language                                : Turkish
Default                                  : Yes
Forced                                  : Yes

Audio #2
ID                                      : 3
Format                                  : AAC
Format/Info                              : Advanced Audio Codec
Format profile                          : LC
Codec ID                                : A_AAC
Duration                                : 1h 35mn
Bit rate                                : 93.7 Kbps
Channel(s)                              : 2 channels
Channel positions                        : Front: L R
Sampling rate                            : 48.0 KHz
Frame rate                              : 46.875 fps (1024 spf)
Compression mode                        : Lossy
Stream size                              : 63.9 MiB (2%)
Title                                    : İngilizce - Filmbol.org
Language                                : English
Default                                  : No
Forced                                  : No

Film Detayları


 Hayat Kitabı

 Hayat Kitabı

 Hayat Kitabı


Film Fragmanı


Film Detayları



Zip Şifresi: filmbol.org Aşağıdaki butona tıklayarak kopyalabilirsiniz.


Mega linki şuan da gizli. Kullanıma açmak için konuya yorum yapın ve ardından sayfayı yenileyin.

Mega


Bunun için üzgünüz ancak, bu linke sadece premium üyeler erişebilir.

Filmbol Cloud



Hızlı Menü: