Filmbol Forum Film İndir 1080P v Hobbit: Beş Ordunun Savaşı (The Hobbit: The Battle of the Five Armies) - 2014 - TR+ORG - 1080P | tt2310332
Mega linklerinin şikayet edilmemesi için global erişime kapatıp sadece yorum yapanlara açıyoruz. Bu linkleri gizleme işlemini mecburen yapıyoruz ve yorum yapmanızın siteye değil size faydası vardır. Teşekürler yazmayı çok görüp, Random/Spam mesajlar atarak Mega linklerini açmaya çalışan kullanıcılara önce süresiz ban, devam ederse IP ban atacağız.
Filmbol'da moderatör olmak ister misiniz? Bizimle iletişime geçmek için tıklayın!
Hobbit: Beş Ordunun Savaşı (The Hobbit: The Battle of the Five Armies) - 2014 - TR+ORG - 1080P | tt2310332
BroserBros
Hobbit: Beş Ordunun Savaşı (The Hobbit: The Battle of the Five Armies) - 2014 - TR+ORG - 1080P | tt2310332
30
6876
  • Derecelendirme: 5/5 - 1 oy
  • 1
  • 2
  • 3
  • 4
  • 5
Konuyu Okuyanlar:1 Ziyaretçi
Şuan Online!
Filmin Yayınlanma Tarihi: 2014 
WWW
Şuan Online!
BroserBros Kurucu Admin
*******
Admin



 Hobbit: Beş Ordunun Savaşı



The Hobbit üçlemesinin son bölümü olan üçüncü filmde, Bilbo Baggins, Thorin Meşekalkan ve Cüceler Bölüğü’nün maceraları sona eriyor. Ejderha Smaug ile karşı karşıya geldikten ve günahkar Hobbit Gollum’dan meşhur güç yüzüğünü aldıktan sonra sağ salim eve ulaşıncaya kadar Bilbo’yu halen daha onlarca yeni serüven bekliyor. Yurtlarına tekrar kavuşan Erebor Cüceleri, Ejderha Smaug’u Göl Kasabası’nın masum yerlileri üzerine saldıkları gerçeğiyle yüzleşmek zorundadırlar. Thorin Meşekalkan ise Arkentaşı’nı ararken önemli değerlerden ödün vermiştir. Thorin’e yardımcı olamayan Bilbo tehlikeli bir seçim yapmanın eşiğine gelir. Bu esnada Lord Sauron planladığı gizli Yalnız Dağ saldırısı için dört Ork bölüğü göndermiştir. Şimdi Cüce, Elf ve İnsanların önünde iki seçenek vardır: Ya birleşip birlikte savaşacaklar ya da hep beraber yok olacaklardır. Beş ordu toplanıp savaşa girmeye hazırlanırken Bilbo hem kendi hayatı hem de arkadaşları nı kurtarmak için savaşmak durumunda kalacaktır.

Hobbit: Beş Ordunun Savaşı (2014) (The Hobbit: The Battle of the Five Armies) | tt2310332 Filmi Imdb'den 500,000 kişi tarafından oylandı ve 7,4 puan aldı. Bu film için editör puanı %80 olarak belirlendi. İyi Seyirler!

Teknik Detaylar

Kod :
General
Unique ID                                : 15788218181589379466382813164613680218 (0xBE0B3416287F39E17562D80C40C3C5A)
Complete name                            : /home/BroserBros/Desktop/8/Hobbit.Beş.Ordunun.Savaşı.2014.1080p.BluRay.x264.TR.ENG.Filmbol.mkv
Format                                   : Matroska
Format version                           : Version 4
File size                                : 2.51 GiB
Duration                                 : 2 h 24 min
Overall bit rate                         : 2 486 kb/s
Movie name                               : Hobbit: Beş Ordunun Savaşı - The Hobbit: The Battle of the Five Armies - 2014 | Filmbol.org
Encoded date                             : UTC 2021-04-26 13:35:17
Writing application                      : mkvmerge v53.0.0 ('Fool's Gold') 64-bit
Writing library                          : libebml v1.4.1 + libmatroska v1.6.2

Video
ID                                       : 1
Format                                   : AVC
Format/Info                              : Advanced Video Codec
Format profile                           : [email protected]
Format settings                          : CABAC / 4 Ref Frames
Format settings, CABAC                   : Yes
Format settings, Reference frames        : 4 frames
Codec ID                                 : V_MPEG4/ISO/AVC
Duration                                 : 2 h 24 min
Bit rate                                 : 1 942 kb/s
Width                                    : 1 920 pixels
Height                                   : 800 pixels
Display aspect ratio                     : 2.40:1
Frame rate mode                          : Constant
Frame rate                               : 23.976 (24000/1001) FPS
Original frame rate                      : 23.976 (23976/1000) FPS
Color space                              : YUV
Chroma subsampling                       : 4:2:0
Bit depth                                : 8 bits
Scan type                                : Progressive
Bits/(Pixel*Frame)                       : 0.053
Stream size                              : 1.96 GiB (78%)
Title                                    : 1080P - Filmbol.org
Writing library                          : x264 core 123 r2189 35cf912
Encoding settings                        : cabac=1 / ref=4 / deblock=1:-1:-1 / analyse=0x3:0x133 / me=umh / subme=9 / psy=1 / psy_rd=1.00:0.15 / mixed_ref=1 / me_range=24 / chroma_me=1 / trellis=2 / 8x8dct=1 / cqm=0 / deadzone=21,11 / fast_pskip=0 / chroma_qp_offset=-3 / threads=48 / sliced_threads=0 / nr=0 / decimate=1 / interlaced=0 / bluray_compat=0 / constrained_intra=0 / bframes=3 / b_pyramid=2 / b_adapt=2 / b_bias=0 / direct=3 / weightb=1 / open_gop=0 / weightp=2 / keyint=250 / keyint_min=23 / scenecut=40 / intra_refresh=0 / rc_lookahead=60 / rc=2pass / mbtree=1 / bitrate=1942 / ratetol=1.0 / qcomp=0.60 / qpmin=0 / qpmax=69 / qpstep=4 / cplxblur=20.0 / qblur=0.5 / vbv_maxrate=31250 / vbv_bufsize=31250 / nal_hrd=none / ip_ratio=1.40 / aq=1:1.00
Default                                  : Yes
Forced                                   : No
Color range                              : Limited
Color primaries                          : BT.709
Matrix coefficients                      : BT.709

Audio #1
ID                                       : 2
Format                                   : AC-3
Format/Info                              : Audio Coding 3
Commercial name                          : Dolby Digital
Codec ID                                 : A_AC3
Duration                                 : 2 h 24 min
Bit rate mode                            : Constant
Bit rate                                 : 448 kb/s
Channel(s)                               : 6 channels
Channel layout                           : L R C LFE Ls Rs
Sampling rate                            : 48.0 kHz
Frame rate                               : 31.250 FPS (1536 SPF)
Compression mode                         : Lossy
Stream size                              : 463 MiB (18%)
Title                                    : Türkçe - Filmbol.org
Language                                 : Turkish
Service kind                             : Complete Main
Default                                  : Yes
Forced                                   : No

Audio #2
ID                                       : 3
Format                                   : AAC LC
Format/Info                              : Advanced Audio Codec Low Complexity
Codec ID                                 : A_AAC-2
Duration                                 : 2 h 24 min
Bit rate                                 : 93.7 kb/s
Channel(s)                               : 2 channels
Channel layout                           : L R
Sampling rate                            : 48.0 kHz
Frame rate                               : 46.875 FPS (1024 SPF)
Compression mode                         : Lossy
Stream size                              : 96.8 MiB (4%)
Title                                    : Orjinal Dil - Filmbol.org
Language                                 : English
Default                                  : No
Forced                                   : No

Text
ID                                       : 4
Format                                   : UTF-8
Codec ID                                 : S_TEXT/UTF8
Codec ID/Info                            : UTF-8 Plain Text
Duration                                 : 2 h 10 min
Bit rate                                 : 36 b/s
Count of elements                        : 1089
Stream size                              : 34.9 KiB (0%)
Title                                    : Türkçe - Filmbol.org
Language                                 : Turkish
Default                                  : No
Forced                                   : No

Film Detayları


 Hobbit: Beş Ordunun Savaşı

 Hobbit: Beş Ordunun Savaşı

 Hobbit: Beş Ordunun Savaşı


Film Fragmanı


Film Detayları

Uptobox ile indir

1Fichier ile indir

1Fichier'den İndiremiyor musun? Tıklayın!


Mega linki şuan da gizli. Kullanıma açmak için konuya yorum yapın ve ardından sayfayı yenileyin.

Mega


Bunun için üzgünüz ancak, bu linke sadece premium üyeler erişebilir.

Filmbol Cloud





Şuan Offine!
Şuan Offine!
trsarash Yeni Üye
*
Üye

  • Konular0
  • Mesajlar1
  • Rep puanı 0
guuuuuuuuzel film
Şuan Offine!
Şuan Offine!
TaunMilitary Yeni Üye
*
Üye

  • Konular0
  • Mesajlar2
  • Rep puanı 0
Teşekkür ederim
Şuan Offine!
Şuan Offine!
Markus antonyus Yeni Üye
*
Üye

  • Konular0
  • Mesajlar1
  • Rep puanı 0
Filimi izlemnizi onerrimerm
Şuan Offine!
Şuan Offine!
Caferjamiryo Yeni Üye
*
Üye

  • Konular0
  • Mesajlar2
  • Rep puanı 0
Thanks
Şuan Offine!
Şuan Offine!
arda_26 Uzman Üye
**
Uzman Üye

  • Konular0
  • Mesajlar6
  • Rep puanı 0
zuperr..
Şuan Offine!
Şuan Offine!
free Uzman Üye
**
Uzman Üye

  • Konular0
  • Mesajlar13
  • Rep puanı 0
magagagag
Şuan Offine!
Şuan Offine!
abdo2017 Yeni Üye
*
Üye

  • Konular0
  • Mesajlar1
  • Rep puanı 0
COK GUZEL
Şuan Offine!
Şuan Offine!
emeklipro Yeni Üye
*
Üye

  • Konular0
  • Mesajlar3
  • Rep puanı 0
Guzeeeel
Şuan Offine!
Şuan Offine!
gfbmikail Yeni Üye
*
Üye

  • Konular0
  • Mesajlar2
  • Rep puanı 0
ellerine sağlık


Konu ile Alakalı Benzer Konular
Konular Yazar Yorumlar Okunma Son Yorum
Filmin Yayınlanma Tarihi: 2011
Transformers: Ay'ın Karanlık Yüzü (Transformers: Dark of the Moon) - 2011 - TR+ORG - 1080P | tt1399103 TheSteeL 0 7 11 saat önce
Son Yorum: TheSteeL
Filmin Yayınlanma Tarihi: 2021
Her Şey Yok Olur (Things Heard & Seen) - 2021 - TR+ORG - 1080P | tt10962368 TheSteeL 0 6 , Saat: 02:11
Son Yorum: TheSteeL
Filmin Yayınlanma Tarihi: 2018
Örümcek-Adam: Örümcek Evreninde (Spider-Man: Into the Spider-Verse) - 2018 - TR+ORG - 1080P | tt4633694 BroserBros 40 3,572 , Saat: 20:57
Son Yorum: DF FD
Filmin Yayınlanma Tarihi: 2015
Yıldız Savaşları 7: Güç Uyanıyor (Star Wars: Episode VII - The Force Awakens) - 2015 - TR+ORG - 1080P | tt2488496 BroserBros 24 4,559 , Saat: 18:00
Son Yorum: BroserBros
Filmin Yayınlanma Tarihi: 1983
Yıldız Savaşları 6: Jedi'ın Dönüşü (Star Wars: Episode VI - Return of the Jedi) - 1983 - TR+ORG - 1080P | tt0086190 BroserBros 24 3,407 , Saat: 17:48
Son Yorum: BroserBros

Hızlı Menü: