Filmbol Forum Film İndir BRRip XviD v Hobbit: Beklenmedik Yolculuk (The Hobbit: An Unexpected Journey) - 2012 - TR - BRRip XviD | tt0903624
Mega linklerinin şikayet edilmemesi için global erişime kapatıp sadece yorum yapanlara açıyoruz. Bu linkleri gizleme işlemini mecburen yapıyoruz ve yorum yapmanızın siteye değil size faydası vardır. Teşekürler yazmayı çok görüp, Random/Spam mesajlar atarak Mega linklerini açmaya çalışan kullanıcılara önce süresiz ban, devam ederse IP ban atacağız.
Filmbol'da moderatör olmak ister misiniz? Bizimle iletişime geçmek için tıklayın!
Hobbit: Beklenmedik Yolculuk (The Hobbit: An Unexpected Journey) - 2012 - TR - BRRip XviD | tt0903624
BroserBros
Hobbit: Beklenmedik Yolculuk (The Hobbit: An Unexpected Journey) - 2012 - TR - BRRip XviD | tt0903624
8
4041
  • Derecelendirme: 5/5 - 1 oy
  • 1
  • 2
  • 3
  • 4
  • 5
Konuyu Okuyanlar:1 Ziyaretçi
Şuan Online!
Filmin Yayınlanma Tarihi: 2012 
WWW
Şuan Online!
BroserBros Kurucu Admin
*******
Admin



 Hobbit: Beklenmedik Yolculuk



Tolkien’in, Yüzüklerin Efendisi üçlemesinin öncül kitabı olarak da görülen Hobbit’ten, üçlemenin yönetmeni Peter Jackson tarafından sinemaya uyarlanan üç filmlik Hobbit macerasının ilk bölümü olan Hobbit: Beklenmedik Yolculuk/The Hobbit: An Unexpected Journey ile bu sefer Bilbo Baggins’in gençliğine gidiyoruz.
Bilbo huzurlu Hobbit toprakları olan The Shire’da yaşarken bir gün büyücü Gandalf aniden ortaya çıkar ve baş kahramanımız Bilbo kendisini efsanevi savaşçı Thorin tarafından yönetilen 13 cücelik maceracı bir grupta buluverir. Ejder Smaug’dan Erebor’un kayıp Cüce Krallığı’nı geri almak için çıktıkları bu yolculukta çirkin Goblinler, Orklar, öldürücü Warglar, Dev Örümcekler ve Büyücülerle dolu yollardan geçeceklerdir…
Yüzüklerin Efendisi üçlemesinden tanıdığımız Ian McKellen, Cate Blanchett, Ian Holm, Christopher Lee, Hugo Weaving, Elijah Wood, Orlando Bloom ve Andy Serkis’i yeniden seyredeceğimiz filmde onlara Richard Armitage, John Bell, Luke Evans, Ryan Gage, Evangeline Lilly, Bret McKenzie, Graham McTavish, Mike Mizrahi, Jeffrey Thomas ve Aidan Turner gibi kalabalık bir oyuncu kadrosu da eşlik ediyor. Filmin senaryosunda ise yönetmen Peter Jackson’ın yanı sıra Fran Walsh, Philippa Boyens ve Guillermo del Toro’nun imzası var.

Hobbit: Beklenmedik Yolculuk (2012) (The Hobbit: An Unexpected Journey) | tt0903624 Filmi Imdb'den 770,000 kişi tarafından oylandı ve 7,8 puan aldı. Bu film için editör puanı %87 olarak belirlendi. İyi Seyirler!

Teknik Detaylar

Kod :
General
Unique ID                                : 245660480380048507865854281592575552061 (0xB8D07CCEDFC78FC4EBF04EC41F62EA3D)
Complete name                            : /home/BroserBros/Desktop/6/Hobbit.Beklenmedik.Yolculuk.2012.BRRip.XviD.TR.Filmbol.avi
Format                                   : Matroska
Format version                           : Version 4
File size                                : 1.85 GiB
Duration                                 : 3 h 2 min
Overall bit rate                         : 1 449 kb/s
Movie name                               : Hobbit: Beklenmedik Yolculuk - The Hobbit: An Unexpected Journey - 2012 | Filmbol.org
Encoded date                             : UTC 2021-04-26 14:30:10
Writing application                      : mkvmerge v53.0.0 ('Fool's Gold') 64-bit
Writing library                          : libebml v1.4.1 + libmatroska v1.6.2
FileExtension_Invalid                    : mkv mk3d mka mks

Video
ID                                       : 1
Format                                   : MPEG-4 Visual
Format profile                           : [email protected]
Format settings, BVOP                    : No
Format settings, QPel                    : No
Format settings, GMC                     : No warppoints
Format settings, Matrix                  : Default (H.263)
Codec ID                                 : V_MS/VFW/FOURCC / FMP4
Duration                                 : 3 h 2 min
Bit rate                                 : 1 318 kb/s
Width                                    : 720 pixels
Height                                   : 304 pixels
Display aspect ratio                     : 2.35:1
Frame rate mode                          : Constant
Frame rate                               : 23.976 (24000/1001) FPS
Color space                              : YUV
Chroma subsampling                       : 4:2:0
Bit depth                                : 8 bits
Scan type                                : Progressive
Compression mode                         : Lossy
Bits/(Pixel*Frame)                       : 0.251
Stream size                              : 1.68 GiB (91%)
Title                                    : Hobbit: Beklenmedik Yolculuk - The Hobbit: An Unexpected Journey - 2012 | Filmbol.org
Writing library                          : Lavc56.41.100
Default                                  : Yes
Forced                                   : No

Audio
ID                                       : 2
Format                                   : MPEG Audio
Format version                           : Version 1
Format profile                           : Layer 3
Format settings                          : Joint stereo / MS Stereo
Codec ID                                 : A_MPEG/L3
Codec ID/Hint                            : MP3
Duration                                 : 3 h 2 min
Bit rate mode                            : Constant
Bit rate                                 : 128 kb/s
Channel(s)                               : 2 channels
Sampling rate                            : 48.0 kHz
Frame rate                               : 41.667 FPS (1152 SPF)
Compression mode                         : Lossy
Stream size                              : 167 MiB (9%)
Title                                    : Hobbit: Beklenmedik Yolculuk - The Hobbit: An Unexpected Journey - 2012 | Filmbol.org
Language                                 : Turkish
Default                                  : Yes
Forced                                   : No

Text
ID                                       : 3
Format                                   : UTF-8
Codec ID                                 : S_TEXT/UTF8
Codec ID/Info                            : UTF-8 Plain Text
Duration                                 : 2 h 52 min
Bit rate                                 : 8 b/s
Count of elements                        : 255
Stream size                              : 10.4 KiB (0%)
Title                                    : Türkçe FORCED - Filmbol.org
Language                                 : Turkish
Default                                  : Yes
Forced                                   : Yes

Film Detayları


 Hobbit: Beklenmedik Yolculuk

 Hobbit: Beklenmedik Yolculuk

 Hobbit: Beklenmedik Yolculuk


Film Fragmanı


Film Detayları


Uptobox ile indir

1Fichier ile indir

1Fichier'den İndiremiyor musun? Tıklayın!


Mega linki şuan da gizli. Kullanıma açmak için konuya yorum yapın ve ardından sayfayı yenileyin.

Mega


Bunun için üzgünüz ancak, bu linke sadece premium üyeler erişebilir.

Filmbol Cloud





Şuan Offine!
Şuan Offine!
haytoki1 Uzman Üye
**
Uzman Üye

  • Konular0
  • Mesajlar18
  • Rep puanı 0
yüzüklerin efendisine benziyor
Şuan Offine!
Şuan Offine!
iambisar Uzman Üye
**
Uzman Üye

  • Konular0
  • Mesajlar22
  • Rep puanı 0
yüzüklerin efendisinin öncesini anlatıyo zaten
Şuan Online!
Şuan Online!
BroserBros Kurucu Admin
*******
Admin

14.12.2019 Güncelleme Notu:

Linkler yenilendi. Kırık linkler kaldırıldı ve Genel Konu Düzenlemesi Yapıldı
Şuan Offine!
Şuan Offine!
Film Yeni Üye
*
Üye

  • Konular0
  • Mesajlar1
  • Rep puanı 0
Teşekkür
Şuan Offine!
Şuan Offine!
MrGunebakan Uzman Üye
**
Uzman Üye

  • Konular0
  • Mesajlar7
  • Rep puanı 0
Sağolun
Şuan Offine!
Şuan Offine!
Megalodon Uzman Üye
**
Uzman Üye

  • Konular0
  • Mesajlar14
  • Rep puanı 0
Teşekkürler
Şuan Online!
Şuan Online!
Furkan61 Süper Üye
***
Super Üye

  • Konular0
  • Mesajlar220
  • Rep puanı 1
güzell
Şuan Online!
Şuan Online!
BroserBros Kurucu Admin
*******
Admin

27.04.2021 Yönetici Notu:

Kırık linkler kontrol edildi, kaldırıldı ve yenilendi. Tüm linkler tamamen çalışır durumda.


Konu ile Alakalı Benzer Konular
Konular Yazar Yorumlar Okunma Son Yorum
Filmin Yayınlanma Tarihi: 2018
Han Solo: Bir Star Wars Hikâyesi (Solo: A Star Wars Story) - 2018 - TR - BRRip XviD | tt3778644 BroserBros 2 438 2 saat önce
Son Yorum: Furkan61
Filmin Yayınlanma Tarihi: 2015
Yıldız Savaşları 7: Güç Uyanıyor (Star Wars: Episode VII - The Force Awakens) - 2015 - TR - BRRip XviD | tt2488496 BroserBros 8 2,184 2 saat önce
Son Yorum: Furkan61
Filmin Yayınlanma Tarihi: 1983
Yıldız Savaşları 6: Jedi'ın Dönüşü (Star Wars: Episode VI - Return of the Jedi) - 1983 - TR - BRRip XviD | tt0086190 BroserBros 8 1,785 2 saat önce
Son Yorum: Furkan61
Filmin Yayınlanma Tarihi: 1980
Yıldız Savaşları 5: İmparator (Star Wars: Episode V - The Empire Strikes Back) - 1980 - TR - BRRip XviD | tt0080684 BroserBros 6 1,779 2 saat önce
Son Yorum: Furkan61
Filmin Yayınlanma Tarihi: 2011
Transformers: Ay'ın Karanlık Yüzü (Transformers: Dark of the Moon) - 2011 - TR - BRRip XviD | tt1399103 TheSteeL 2 14 8 saat önce
Son Yorum: TheSteeL

Hızlı Menü: