Filmbol Forum Film İndir 3D v Kral Arthur: Kılıç Efsanesi (King Arthur: Legend of the Sword) - 2017 - TR+ORG - 3D
Bildirimi Kapat
Üyelik alımları açıldı.


Bildirimi Kapat
Mega linklerinin şikayet edilmemesi için global erişime kapatıp sadece yorum yapanlara açıyoruz. Bu linkleri gizleme işlemini mecburen yapıyoruz ve yorum yapmanızın siteye değil size faydası vardır. Teşekkürler yazmayı çok görüp, Random/Spam/Anlamsız mesajlar atarak forumu kirletip Mega linklerini açmaya çalışan kullanıcılara süresiz ban atacağız.

Premium Üyelik Al

Kral Arthur: Kılıç Efsanesi (King Arthur: Legend of the Sword) - 2017 - TR+ORG - 3D
BroserBros
Kral Arthur: Kılıç Efsanesi (King Arthur: Legend of the Sword) - 2017 - TR+ORG - 3D
1
383
  • Derecelendirme: 0/5 - 0 oy
  • 1
  • 2
  • 3
  • 4
  • 5
Konuyu Okuyanlar:1 Ziyaretçi
Şuan Online!
Filmin Yayınlanma Tarihi: 2017 
WWW
Şuan Online!
BroserBros Kurucu Admin
*******
Admin








 Kral Arthur: Kılıç Efsanesi



Arthur'un babası kral olduğu için Arthur'da doğuştan bir kral sayılır ancak babasının erkenden gelen ölüm haberi ile amcası haksız yere tahta geçer ve taht'ı arthur'a verme gibi bir niyeti de yoktur. Bu durum karşısında Arthur ise sessiz kalmayacak ve elinden alınmış bu tahtı geri almak için mücadele edecektir...

Kral Arthur: Kılıç Efsanesi (2017) (King Arthur: Legend of the Sword) Filmi Imdb'den 190,000 kişi tarafından oylandı ve 6,7 puan aldı. Bu film için editör puanı 7,0 olarak belirlendi. İyi Seyirler!

Teknik Detaylar

Kod :
General
Unique ID                                : 284735531311218579795446334687269678394 (0xD636118FA8F9937D9A25BA298F10ED3A)
Complete name                            : /root/Desktop/7/Kral.Arthur.Kılıç.Efsanesi.2017.3D.HSBS.BluRay.x264.TR.ENG.Filmbol.mkv
Format                                  : Matroska
Format version                          : Version 4 / Version 2
File size                                : 2.32 GiB
Duration                                : 2h 6mn
Overall bit rate                        : 2 635 Kbps
Movie name                              : Kral Arthur: Kılıç Efsanesi - King Arthur Legend of The Sword - 2017 |  Filmbol.org
Encoded date                            : UTC 2020-05-13 13:53:38
Writing application                      : mkvmerge v8.8.0 ('Wind at my back') 64bit
Writing library                          : libebml v1.3.3 + libmatroska v1.4.4

Video
ID                                      : 1
Format                                  : AVC
Format/Info                              : Advanced Video Codec
Format profile                          : [email protected]
Format settings, CABAC                  : Yes
Format settings, ReFrames                : 4 frames
Codec ID                                : V_MPEG4/ISO/AVC
Duration                                : 2h 6mn
Bit rate                                : 2 050 Kbps
Width                                    : 1 920 pixels
Height                                  : 800 pixels
Display aspect ratio                    : 2.40:1
Frame rate mode                          : Constant
Frame rate                              : 23.976 (24000/1001) fps
Color space                              : YUV
Chroma subsampling                      : 4:2:0
Bit depth                                : 8 bits
Scan type                                : Progressive
Bits/(Pixel*Frame)                      : 0.056
Stream size                              : 1.81 GiB (78%)
Title                                    : 3D - Filmbol.org
Writing library                          : x264 core 148
Encoding settings                        : cabac=1 / ref=4 / deblock=1:-1:-1 / analyse=0x3:0x133 / me=umh / subme=9 / psy=1 / psy_rd=1.00:0.15 / mixed_ref=1 / me_range=24 / chroma_me=1 / trellis=2 / 8x8dct=1 / cqm=0 / deadzone=21,11 / fast_pskip=0 / chroma_qp_offset=-3 / threads=12 / lookahead_threads=1 / sliced_threads=0 / nr=0 / decimate=1 / interlaced=0 / bluray_compat=0 / constrained_intra=0 / bframes=3 / b_pyramid=2 / b_adapt=2 / b_bias=0 / direct=3 / weightb=1 / open_gop=0 / weightp=2 / keyint=250 / keyint_min=23 / scenecut=40 / intra_refresh=0 / rc_lookahead=60 / rc=2pass / mbtree=1 / bitrate=2050 / ratetol=1.0 / qcomp=0.60 / qpmin=0 / qpmax=69 / qpstep=4 / cplxblur=20.0 / qblur=0.5 / vbv_maxrate=31250 / vbv_bufsize=31250 / nal_hrd=none / filler=0 / ip_ratio=1.40 / aq=1:1.00
Default                                  : Yes
Forced                                  : No

Audio #1
ID                                      : 2
Format                                  : AC-3
Format/Info                              : Audio Coding 3
Mode extension                          : CM (complete main)
Format settings, Endianness              : Big
Codec ID                                : A_AC3
Duration                                : 2h 6mn
Bit rate mode                            : Constant
Bit rate                                : 448 Kbps
Channel(s)                              : 6 channels
Channel positions                        : Front: L C R, Side: L R, LFE
Sampling rate                            : 48.0 KHz
Frame rate                              : 31.250 fps (1536 spf)
Compression mode                        : Lossy
Stream size                              : 404 MiB (17%)
Title                                    : Türkçe - Filmbol.org
Default                                  : Yes
Forced                                  : Yes

Audio #2
ID                                      : 3
Format                                  : AAC
Format/Info                              : Advanced Audio Codec
Format profile                          : LC
Codec ID                                : A_AAC
Duration                                : 2h 6mn
Bit rate                                : 127 Kbps
Channel(s)                              : 2 channels
Channel positions                        : Front: L R
Sampling rate                            : 48.0 KHz
Frame rate                              : 46.875 fps (1024 spf)
Compression mode                        : Lossy
Stream size                              : 115 MiB (5%)
Title                                    : İngilizce - Filmbol.org
Language                                : English
Default                                  : No
Forced                                  : No

Text #1
ID                                      : 4
Format                                  : PGS
Muxing mode                              : zlib
Codec ID                                : S_HDMV/PGS
Codec ID/Info                            : Picture based subtitle format used on BDs/HD-DVDs
Duration                                : 2h 4mn
Bit rate                                : 7 681 bps
Count of elements                        : 2502
Stream size                              : 6.85 MiB (0%)
Title                                    : Türkçe Altyazı - Filmbol.org
Default                                  : No
Forced                                  : No

Text #2
ID                                      : 5
Format                                  : PGS
Muxing mode                              : zlib
Codec ID                                : S_HDMV/PGS
Codec ID/Info                            : Picture based subtitle format used on BDs/HD-DVDs
Duration                                : 2h 4mn
Bit rate                                : 38 bps
Count of elements                        : 10
Stream size                              : 35.0 KiB (0%)
Title                                    : Zorunlu Altyazı - Filmbol.org
Default                                  : Yes
Forced                                  : Yes

Film Detayları


 Kral Arthur: Kılıç Efsanesi

 Kral Arthur: Kılıç Efsanesi

 Kral Arthur: Kılıç Efsanesi


Film Fragmanı


Film Detayları



Zip Şifresi: filmbol.org Aşağıdaki butona tıklayarak kopyalabilirsiniz.


Uptobox ile indir

1Fichier ile indir

1Fichier'den İndiremiyor musun? Tıklayın!


Mega linki şuan da gizli. Kullanıma açmak için konuya yorum yapın ve ardından sayfayı yenileyin.

Mega


Bunun için üzgünüz ancak, bu linke sadece premium üyeler erişebilir.

Filmbol Cloud

Şuan Online!
Şuan Online!
BroserBros Kurucu Admin
*******
Admin

28.01.2021 Yönetici Notu:

Kırık linkler kontrol edildi, kaldırıldı ve yenilendi. Tüm linkler tamamen çalışır durumda.


Hızlı Menü: