Filmbol Forum Film İndir BRRip XviD v Küçük Ayak (Smallfoot) - 2018 - TR - BRRip XviD
Bildirimi Kapat
Üyelik alımları açıldı.


Bildirimi Kapat
Mega linklerinin şikayet edilmemesi için global erişime kapatıp sadece yorum yapanlara açıyoruz. Bu linkleri gizleme işlemini mecburen yapıyoruz ve yorum yapmanızın siteye değil size faydası vardır. Teşekkürler yazmayı çok görüp, Random/Spam/Anlamsız mesajlar atarak forumu kirletip Mega linklerini açmaya çalışan kullanıcılara süresiz ban atacağız.

Premium Üyelik Al

Küçük Ayak (Smallfoot) - 2018 - TR - BRRip XviD
BroserBros
Küçük Ayak (Smallfoot) - 2018 - TR - BRRip XviD
1
281
  • Derecelendirme: 0/5 - 0 oy
  • 1
  • 2
  • 3
  • 4
  • 5
Konuyu Okuyanlar:1 Ziyaretçi
Şuan Online!
Filmin Yayınlanma Tarihi: 2018 
WWW
Şuan Online!
BroserBros Kurucu Admin
*******
Admin








 Küçük Ayak



Yetilerin bir efsane olduğuna ve varlığına inanılır. Ancak Küçük Ayak filminde farklı bir bakış açısı ile, Yetilerin'de insanlar için aynısını düşündüğü varsayılır. Migo adındaki yeti ise buna tamamen inanır, küçük ayak lakaplı insanlar ona göre tamamen gerçektir ancak Migo bunun bir kanıtını bulamaz. Sonunda bir insanla karşılaşır ve bu durum küçük ayakların gerçek olduğunu kanıtlamanın bir yoludur.

Küçük Ayak (2018) (Smallfoot) Filmi Imdb'den 31,000 kişi tarafından oylandı ve 6,6 puan aldı. Bu film için editör puanı 6,8 olarak belirlendi. İyi Seyirler!

Teknik Detaylar

Kod :
General
Complete name                            : /root/Desktop/6/Küçük.Ayaklar.2018.BRRip.XviD.TR.Filmbol.avi
Format                                  : AVI
Format/Info                              : Audio Video Interleave
File size                                : 1.17 GiB
Duration                                : 1h 36mn
Overall bit rate                        : 1 733 Kbps
Writing application                      : VirtualDubMod 1.5.10.3 | www.virtualdub-fr.org || (build 2550/release)
Writing library                          : VirtualDubMod build 2550/release
Video
ID                                      : 0
Format                                  : MPEG-4 Visual
Format profile                          : [email protected]
Format settings, BVOP                    : No
Format settings, QPel                    : No
Format settings, GMC                    : No warppoints
Format settings, Matrix                  : Default (H.263)
Codec ID                                : XVID
Codec ID/Hint                            : XviD
Duration                                : 1h 36mn
Bit rate                                : 1 596 Kbps
Width                                    : 720 pixels
Height                                  : 302 pixels
Display aspect ratio                    : 2.40:1
Original display aspect ratio            : 2.40:1
Frame rate                              : 23.976 fps
Color space                              : YUV
Chroma subsampling                      : 4:2:0
Bit depth                                : 8 bits
Scan type                                : Progressive
Compression mode                        : Lossy
Bits/(Pixel*Frame)                      : 0.306
Stream size                              : 1.07 GiB (92%)
Writing library                          : Lavc58.18.100

Audio
ID                                      : 1
Format                                  : MPEG Audio
Format version                          : Version 1
Format profile                          : Layer 3
Mode                                    : Joint stereo
Codec ID                                : 55
Codec ID/Hint                            : MP3
Duration                                : 1h 36mn
Bit rate mode                            : Constant
Bit rate                                : 128 Kbps
Channel(s)                              : 2 channels
Sampling rate                            : 48.0 KHz
Compression mode                        : Lossy
Stream size                              : 88.2 MiB (7%)
Alignment                                : Aligned on interleaves
Interleave, duration                    : 42 ms (1.00 video frame)
Interleave, preload duration            : 504 ms

Film Detayları


 Küçük Ayak

 Küçük Ayak

 Küçük Ayak


Film Fragmanı


Film Detayları



Zip Şifresi: filmbol.org Aşağıdaki butona tıklayarak kopyalabilirsiniz.



Uptobox ile indir

1Fichier ile indir

1Fichier'den İndiremiyor musun? Tıklayın!


Mega linki şuan da gizli. Kullanıma açmak için konuya yorum yapın ve ardından sayfayı yenileyin.

Mega


Bunun için üzgünüz ancak, bu linke sadece premium üyeler erişebilir.

Filmbol Cloud

Şuan Online!
Şuan Online!
BroserBros Kurucu Admin
*******
Admin

28.01.2021 Yönetici Notu:

Kırık linkler kontrol edildi, kaldırıldı ve yenilendi. Tüm linkler tamamen çalışır durumda.


Hızlı Menü: