Filmbol Forum Film İndir BRRip XviD v Wolverine (The Wolverine) - 2013 - TR - BRRip XviD | tt1430132
Mega linklerinin şikayet edilmemesi için global erişime kapatıp sadece yorum yapanlara açıyoruz. Bu linkleri gizleme işlemini mecburen yapıyoruz ve yorum yapmanızın siteye değil size faydası vardır. Teşekürler yazmayı çok görüp, Random/Spam mesajlar atarak Mega linklerini açmaya çalışan kullanıcılara önce süresiz ban, devam ederse IP ban atacağız.
Filmbol'da moderatör olmak ister misiniz? Bizimle iletişime geçmek için tıklayın!
Wolverine (The Wolverine) - 2013 - TR - BRRip XviD | tt1430132
BroserBros
Wolverine (The Wolverine) - 2013 - TR - BRRip XviD | tt1430132
5
2058
  • Derecelendirme: 0/5 - 0 oy
  • 1
  • 2
  • 3
  • 4
  • 5
Konuyu Okuyanlar:1 Ziyaretçi
Şuan Online!
Filmin Yayınlanma Tarihi: 2013 
WWW
Şuan Online!
BroserBros Kurucu Admin
*******
Admin



 Wolverine



Jean Grey’in ölümünün ardından büyük bir depresyona sürüklenen ve kimliğinden kurtulmak isteyen Wolverine, yıllar önce hayatını kurtarmış olan bir arkadaşının ortaya çıkıp kendisinden yardım istemesi sonucu Japonya’ya gidip onu görmeye karar verir. Burada kendisine sunulan öneriyi kabul eden Wolverine, bu sayede ölümsüzlük yetisinden kurtulup ölümlü bir canlıya dönüşecektir. Ancak bu etapta Silver Samurai isimli ölümcül bir düşman edindiğinin farkında değildir. Bu düşmana acımasız Viper’ın da eklenmesiyle, tarihi bir savaş başlar. Wolverine bu savaş sürerken, mutant yanına ve geçmişinden gelip kabusu olan bir gizeme karşı da mücadele etmek zorundadır.

Wolverine (2013) (The Wolverine) | tt1430132 Filmi Imdb'den 450,000 kişi tarafından oylandı ve 6,7 puan aldı. Bu film için editör puanı %79 olarak belirlendi. İyi Seyirler!

Teknik Detaylar

Kod :
General
Unique ID                                : 162862606380110502914949977883614500701 (0x7A86327187DA705F9906DC1B5819D75D)
Complete name                            : /home/BroserBros/Desktop/7/Wolverine.2013.BRRip.XviD.TR.Filmbol.avi
Format                                   : Matroska
Format version                           : Version 4
File size                                : 1.40 GiB
Duration                                 : 2 h 6 min
Overall bit rate                         : 1 586 kb/s
Movie name                               : Wolverine - The Wolverine - 2013 | Filmbol.org
Encoded date                             : UTC 2021-04-11 14:27:52
Writing application                      : mkvmerge v53.0.0 ('Fool's Gold') 64-bit
Writing library                          : libebml v1.4.1 + libmatroska v1.6.2
FileExtension_Invalid                    : mkv mk3d mka mks

Video
ID                                       : 1
Format                                   : MPEG-4 Visual
Format profile                           : Advanced [email protected]
Format settings                          : BVOP2 / Custom Matrix
Format settings, BVOP                    : 2
Format settings, QPel                    : No
Format settings, GMC                     : No warppoints
Format settings, Matrix                  : Custom
Muxing mode                              : Packed bitstream
Codec ID                                 : V_MS/VFW/FOURCC / XVID
Codec ID/Hint                            : XviD
Duration                                 : 2 h 6 min
Bit rate                                 : 1 456 kb/s
Width                                    : 672 pixels
Height                                   : 288 pixels
Display aspect ratio                     : 2.35:1
Frame rate mode                          : Constant
Frame rate                               : 23.976 (23976/1000) FPS
Color space                              : YUV
Chroma subsampling                       : 4:2:0
Bit depth                                : 8 bits
Scan type                                : Progressive
Compression mode                         : Lossy
Bits/(Pixel*Frame)                       : 0.314
Stream size                              : 1.28 GiB (92%)
Title                                    : Wolverine - The Wolverine - 2013 | Filmbol.org
Writing library                          : XviD 1.1.2 (UTC 2006-11-01)
Default                                  : Yes
Forced                                   : No

Audio
ID                                       : 2
Format                                   : MPEG Audio
Format version                           : Version 1
Format profile                           : Layer 3
Format settings                          : Joint stereo / MS Stereo
Codec ID                                 : A_MPEG/L3
Codec ID/Hint                            : MP3
Duration                                 : 2 h 6 min
Bit rate mode                            : Constant
Bit rate                                 : 128 kb/s
Channel(s)                               : 2 channels
Sampling rate                            : 48.0 kHz
Frame rate                               : 41.667 FPS (1152 SPF)
Compression mode                         : Lossy
Stream size                              : 115 MiB (8%)
Title                                    : Wolverine - The Wolverine - 2013 | Filmbol.org
Writing library                          : LAME3.99r
Encoding settings                        : -m j -V 4 -q 2 -lowpass 17 -b 128
Default                                  : Yes

Film Detayları


 Wolverine

 Wolverine

 Wolverine


Film Fragmanı


Film Detayları


Uptobox ile indir

1Fichier ile indir

1Fichier'den İndiremiyor musun? Tıklayın!


Mega linki şuan da gizli. Kullanıma açmak için konuya yorum yapın ve ardından sayfayı yenileyin.

Mega


Bunun için üzgünüz ancak, bu linke sadece premium üyeler erişebilir.

Filmbol Cloud





Şuan Offine!
Şuan Offine!
vay Yeni Üye
*
Üye

  • Konular0
  • Mesajlar1
  • Rep puanı 0
teşekkürler
Şuan Online!
Şuan Online!
BroserBros Kurucu Admin
*******
Admin

14.12.2019 Güncelleme Notu:

Linkler yenilendi. Kırık linkler kaldırıldı ve Genel Konu Düzenlemesi Yapıldı
Şuan Offine!
Şuan Offine!
Ap0calypse Süper Üye
***
Super Üye

  • Konular0
  • Mesajlar39
  • Rep puanı 0
eline sağlık
Şuan Offine!
Şuan Offine!
ruknettin Uzman Üye
**
Uzman Üye

  • Konular0
  • Mesajlar8
  • Rep puanı 0
çok güzel
Şuan Online!
Şuan Online!
BroserBros Kurucu Admin
*******
Admin

13.04.2021 Yönetici Notu:

Kırık linkler kontrol edildi, kaldırıldı ve yenilendi. Tüm linkler tamamen çalışır durumda.


Konu ile Alakalı Benzer Konular
Konular Yazar Yorumlar Okunma Son Yorum
Filmin Yayınlanma Tarihi: 2018
Han Solo: Bir Star Wars Hikâyesi (Solo: A Star Wars Story) - 2018 - TR - BRRip XviD | tt3778644 BroserBros 2 438 1 saat önce
Son Yorum: Furkan61
Filmin Yayınlanma Tarihi: 2015
Yıldız Savaşları 7: Güç Uyanıyor (Star Wars: Episode VII - The Force Awakens) - 2015 - TR - BRRip XviD | tt2488496 BroserBros 8 2,184 1 saat önce
Son Yorum: Furkan61
Filmin Yayınlanma Tarihi: 1983
Yıldız Savaşları 6: Jedi'ın Dönüşü (Star Wars: Episode VI - Return of the Jedi) - 1983 - TR - BRRip XviD | tt0086190 BroserBros 8 1,785 1 saat önce
Son Yorum: Furkan61
Filmin Yayınlanma Tarihi: 1980
Yıldız Savaşları 5: İmparator (Star Wars: Episode V - The Empire Strikes Back) - 1980 - TR - BRRip XviD | tt0080684 BroserBros 6 1,779 1 saat önce
Son Yorum: Furkan61
Filmin Yayınlanma Tarihi: 2011
Transformers: Ay'ın Karanlık Yüzü (Transformers: Dark of the Moon) - 2011 - TR - BRRip XviD | tt1399103 TheSteeL 2 14 8 saat önce
Son Yorum: TheSteeL

Hızlı Menü: