Filmbol Forum Film İndir UHD - ULTRA HD - 4K v Black Panther (Kara Panter) - 2018 - TR+ORG - UHD x265 - 10Bit (4K)
Bildirimi Kapat
Üyelik alımları açıldı.


Bildirimi Kapat
Mega linklerinin şikayet edilmemesi için global erişime kapatıp sadece yorum yapanlara açıyoruz. Bu linkleri gizleme işlemini mecburen yapıyoruz ve yorum yapmanızın siteye değil size faydası vardır. Teşekkürler yazmayı çok görüp, Random/Spam/Anlamsız mesajlar atarak forumu kirletip Mega linklerini açmaya çalışan kullanıcılara süresiz ban atacağız.

Premium Üyelik Al

Black Panther (Kara Panter) - 2018 - TR+ORG - UHD x265 - 10Bit (4K)
BroserBros
Black Panther (Kara Panter) - 2018 - TR+ORG - UHD x265 - 10Bit (4K)
3
523
  • Derecelendirme: 5/5 - 1 oy
  • 1
  • 2
  • 3
  • 4
  • 5
Konuyu Okuyanlar:1 Ziyaretçi
Şuan Online!
Filmin Yayınlanma Tarihi: 2018 
WWW
Şuan Online!
BroserBros Kurucu Admin
*******
Admin








 Black Panther



T'Challa, babasını kaybetmiştir ve şimdi teknoloji maximum seviyede olan Wakanda'nın yeni bir krala ihtiyacı vardır. T'Challa babasının kral olmasından dolayı hak iddaa eden tek kişidir. Ancak Wakanda bir monarşi tarzı ile yönetilmez, isteyen herkes Kral'a meydan okuyabilir ve eğer kazanırsa Wakandanın yeni kralı olabilir. T'Challa hiç bir meydan okuma beklemez, ancak bir gün eski düşmanı ona tam tac takılacağı zaman meydan okuyacaktır...

Black Panther (2018) (Kara Panter) Filmi Imdb'den 600,000 kişi tarafından oylandı ve 7,3 puan aldı. Bu film için editör puanı 8,1 olarak belirlendi. İyi Seyirler!

Teknik Detaylar

Kod :
General
Unique ID                                : 183224632631364424512764143055069874166 (0x89D7C7D8E6DF7CD51BF12E95A00587F6)
Complete name                            : /root/Desktop/2/Kara.Panter.2018.4K.BluRay.x265.10Bit.TR.ENG.Filmbol.mkv
Format                                  : Matroska
Format version                          : Version 4 / Version 2
File size                                : 6.36 GiB
Duration                                : 2h 14mn
Overall bit rate                        : 6 771 Kbps
Movie name                              : Kara Panter - Black Panter  - 2018 | Filmbol.org
Encoded date                            : UTC 2020-05-11 12:32:08
Writing application                      : mkvmerge v8.8.0 ('Wind at my back') 64bit
Writing library                          : libebml v1.3.3 + libmatroska v1.4.4

Video
ID                                      : 1
Format                                  : HEVC
Format/Info                              : High Efficiency Video Coding
Format profile                          : Main [email protected]@Main
Codec ID                                : V_MPEGH/ISO/HEVC
Duration                                : 2h 14mn
Bit rate                                : 6 001 Kbps
Width                                    : 3 840 pixels
Height                                  : 1 608 pixels
Display aspect ratio                    : 2.40:1
Frame rate mode                          : Variable
Frame rate                              : 23.976 fps
Color space                              : YUV
Chroma subsampling                      : 4:2:0
Bit depth                                : 10 bits
Bits/(Pixel*Frame)                      : 0.041
Stream size                              : 5.64 GiB (89%)
Title                                    : Filmbol.org
Writing library                          : x265 3.3+4-30eb4de83092:[Linux][GCC 7.4.0][64 bit] 10bit
Encoding settings                        : cpuid=1111039 / frame-threads=3 / wpp / no-pmode / no-pme / no-psnr / no-ssim / log-level=2 / input-csp=1 / input-res=3840x1608 / interlace=0 / total-frames=0 / level-idc=0 / high-tier=1 / uhd-bd=0 / ref=4 / no-allow-non-conformance / no-repeat-headers / annexb / no-aud / no-hrd / info / hash=0 / no-temporal-layers / open-gop / min-keyint=23 / keyint=250 / gop-lookahead=0 / bframes=4 / b-adapt=2 / b-pyramid / bframe-bias=0 / rc-lookahead=25 / lookahead-slices=4 / scenecut=40 / hist-scenecut=0 / radl=0 / no-splice / no-intra-refresh / ctu=64 / min-cu-size=8 / rect / no-amp / max-tu-size=32 / tu-inter-depth=1 / tu-intra-depth=1 / limit-tu=0 / rdoq-level=2 / dynamic-rd=0.00 / no-ssim-rd / signhide / no-tskip / nr-intra=0 / nr-inter=0 / no-constrained-intra / strong-intra-smoothing / max-merge=3 / limit-refs=3 / limit-modes / me=3 / subme=3 / merange=57 / temporal-mvp / no-frame-dup / no-hme / weightp / no-weightb / no-analyze-src-pics / deblock=0:0 / sao / no-sao-non-deblock / rd=4 / selective-sao=4 / no-early-skip / rskip / no-fast-intra / no-tskip-fast / no-cu-lossless / no-b-intra / no-splitrd-skip / rdpenalty=0 / psy-rd=2.00 / psy-rdoq=1.00 / no-rd-refine / no-lossless / cbqpoffs=0 / crqpoffs=0 / rc=abr / bitrate=6000 / qcomp=0.60 / qpstep=4 / stats-write=0 / stats-read=2 / cplxblur=20.0 / qblur=0.5 / ipratio=1.40 / pbratio=1.30 / aq-mode=2 / aq-strength=1.00 / cutree / zone-count=0 / no-strict-cbr / qg-size=32 / no-rc-grain / qpmax=69 / qpmin=0 / no-const-vbv / sar=1 / overscan=0 / videoformat=5 / range=0 / colorprim=2 / transfer=2 / colormatrix=2 / chromaloc=0 / display-window=0 / cll=0,0 / min-luma=0 / max-luma=1023 / log2-max-poc-lsb=8 / vui-timing-info / vui-hrd-info / slices=1 / no-opt-qp-pps / no-opt-ref-list-length-pps / no-multi-pass-opt-rps / scenecut-bias=0.05 / hist-threshold=0.01 / no-opt-cu-delta-qp / no-aq-motion / no-hdr10 / no-hdr10-opt / no-dhdr10-opt / no-idr-recovery-sei / analysis-reuse-level=0 / analysis-save-reuse-level=0 / analysis-load-reuse-level=0 / scale-factor=0 / refine-intra=0 / refine-inter=0 / refine-mv=1 / refine-ctu-distortion=0 / no-limit-sao / ctu-info=0 / no-lowpass-dct / refine-analysis-type=0 / copy-pic=1 / max-ausize-factor=1.0 / no-dynamic-refine / no-single-sei / no-hevc-aq / no-svt / no-field / qp-adaptation-range=1.00 / no-scenecut-aware-qpconformance-window-offsets / right=0 / bottom=0
Default                                  : Yes
Forced                                  : No
Color range                              : Limited

Audio #1
ID                                      : 2
Format                                  : AAC
Format/Info                              : Advanced Audio Codec
Format profile                          : LC
Codec ID                                : A_AAC
Duration                                : 2h 14mn
Bit rate                                : 384 Kbps
Channel(s)                              : 6 channels
Channel positions                        : Front: L C R, Side: L R, LFE
Sampling rate                            : 48.0 KHz
Frame rate                              : 46.875 fps (1024 spf)
Compression mode                        : Lossy
Stream size                              : 370 MiB (6%)
Title                                    : Filmbol.org
Default                                  : Yes
Forced                                  : No

Audio #2
ID                                      : 3
Format                                  : AC-3
Format/Info                              : Audio Coding 3
Mode extension                          : CM (complete main)
Format settings, Endianness              : Big
Codec ID                                : A_AC3
Duration                                : 2h 14mn
Bit rate mode                            : Constant
Bit rate                                : 384 Kbps
Channel(s)                              : 6 channels
Channel positions                        : Front: L C R, Side: L R, LFE
Sampling rate                            : 48.0 KHz
Frame rate                              : 31.250 fps (1536 spf)
Compression mode                        : Lossy
Delay relative to video                  : 1s 0ms
Stream size                              : 369 MiB (6%)
Title                                    : Filmbol.org
Default                                  : No
Forced                                  : No

Text #1
ID                                      : 4
Format                                  : UTF-8
Codec ID                                : S_TEXT/UTF8
Codec ID/Info                            : UTF-8 Plain Text
Duration                                : 2h 12mn
Bit rate                                : 1 bps
Count of elements                        : 76
Stream size                              : 1.45 KiB (0%)
Title                                    : KISIM
Default                                  : Yes
Forced                                  : No

Text #2
ID                                      : 5
Format                                  : UTF-8
Codec ID                                : S_TEXT/UTF8
Codec ID/Info                            : UTF-8 Plain Text
Duration                                : 2h 13mn
Bit rate                                : 42 bps
Count of elements                        : 1442
Stream size                              : 41.6 KiB (0%)
Title                                    : Türkçe Altyazı
Default                                  : No
Forced                                  : No

Film Detayları


 Black Panther

 Black Panther

 Black Panther


Film Fragmanı


Film Detayları



Zip Şifresi: filmbol.org Aşağıdaki butona tıklayarak kopyalabilirsiniz.


Mega linki şuan da gizli. Kullanıma açmak için konuya yorum yapın ve ardından sayfayı yenileyin.

Mega


Bunun için üzgünüz ancak, bu linke sadece premium üyeler erişebilir.

Filmbol Cloud

Şuan Offine!
Şuan Offine!
fiko Uzman Üye
**
Uzman Üye

  • Konular0
  • Mesajlar6
  • Rep puanı 0
Teşekkürler
Şuan Online!
Şuan Online!
ahmettepe Yeni Üye
*
Üye

  • Konular0
  • Mesajlar59
  • Rep puanı 1
teşekkürler
Şuan Online!
Şuan Online!
TheRzR Yeni Üye
*
Üye

  • Konular0
  • Mesajlar32
  • Rep puanı 0
Teşekkürler,


Hızlı Menü: