Filmbol Forum Film İndir BRRip XviD v Para Treni (Money Train) - 1995 - TR - BRRip XviD
Bildirimi Kapat
Üyelik alımları açıldı.


Bildirimi Kapat
Mega linklerinin şikayet edilmemesi için global erişime kapatıp sadece yorum yapanlara açıyoruz. Bu linkleri gizleme işlemini mecburen yapıyoruz ve yorum yapmanızın siteye değil size faydası vardır. Teşekkürler yazmayı çok görüp, Random/Spam/Anlamsız mesajlar atarak forumu kirletip Mega linklerini açmaya çalışan kullanıcılara süresiz ban atacağız.

Premium Üyelik Al

Para Treni (Money Train) - 1995 - TR - BRRip XviD
BroserBros
Para Treni (Money Train) - 1995 - TR - BRRip XviD
1
365
  • Derecelendirme: 5/5 - 1 oy
  • 1
  • 2
  • 3
  • 4
  • 5
Konuyu Okuyanlar:1 Ziyaretçi
Şuan Online!
Filmin Yayınlanma Tarihi: 1995 
WWW
Şuan Online!
BroserBros Kurucu Admin
*******
Admin








 Para Treni



İki süt kardeş ki bunların birisi siyahken birisi beyazdır, çocukluk yıllarından beri birbirlerinden ayrılmadan hayat sürmüşlerdir. Hayat onların pek umrunda değildir, kafalarına göre takılılırlar. Bir gün onlara trenin soyulmasının ardından polisiye görevi verilir ve olaylar gelişir...

Para Treni (1995) (Money Train) Filmi Imdb'den 40,000 kişi tarafından oylandı ve 5,7 puan aldı. Bu film için editör puanı 6,0 olarak belirlendi. İyi Seyirler!

Teknik Detaylar

Kod :
General
Complete name                            : /root/Desktop/1/Para.Treni.1995.BDRip.XviD.Filmbol.avi
Format                                  : AVI
Format/Info                              : Audio Video Interleave
File size                                : 1.69 GiB
Duration                                : 1h 49mn
Overall bit rate                        : 2 198 Kbps

Video
ID                                      : 0
Format                                  : MPEG-4 Visual
Format profile                          : Advanced [email protected]
Format settings, BVOP                    : 1
Format settings, QPel                    : No
Format settings, GMC                    : No warppoints
Format settings, Matrix                  : Custom
Codec ID                                : XVID
Codec ID/Hint                            : XviD
Duration                                : 1h 49mn
Bit rate                                : 2 058 Kbps
Width                                    : 720 pixels
Height                                  : 304 pixels
Display aspect ratio                    : 2.35:1
Frame rate                              : 23.976 (23976/1000) fps
Color space                              : YUV
Chroma subsampling                      : 4:2:0
Bit depth                                : 8 bits
Scan type                                : Progressive
Compression mode                        : Lossy
Bits/(Pixel*Frame)                      : 0.392
Stream size                              : 1.58 GiB (94%)
Writing library                          : XviD 73

Audio
ID                                      : 1
Format                                  : MPEG Audio
Format version                          : Version 1
Format profile                          : Layer 3
Codec ID                                : 55
Codec ID/Hint                            : MP3
Duration                                : 1h 49mn
Bit rate mode                            : Constant
Bit rate                                : 128 Kbps
Channel(s)                              : 2 channels
Sampling rate                            : 44.1 KHz
Compression mode                        : Lossy
Stream size                              : 101 MiB (6%)
Alignment                                : Aligned on interleaves
Interleave, duration                    : 26 ms (0.63 video frame)
Writing library                          : LAME3.99.5

Film Detayları


 Para Treni

 Para Treni

 Para Treni


Film Fragmanı


Film Detayları



Zip Şifresi: filmbol.org Aşağıdaki butona tıklayarak kopyalabilirsiniz.



Uptobox ile indir

1Fichier ile indir

1Fichier'den İndiremiyor musun? Tıklayın!


Mega linki şuan da gizli. Kullanıma açmak için konuya yorum yapın ve ardından sayfayı yenileyin.

Mega


Bunun için üzgünüz ancak, bu linke sadece premium üyeler erişebilir.

Filmbol Cloud

Şuan Online!
Şuan Online!
BroserBros Kurucu Admin
*******
Admin

07.02.2021 Yönetici Notu:

Kırık linkler kontrol edildi, kaldırıldı ve yenilendi. Tüm linkler tamamen çalışır durumda.


Hızlı Menü: