Filmbol Forum Film İndir BRRip XviD v Platform (El Hoyo) - 2019 - TR - BRRip XviD
Bildirimi Kapat
Üyelik alımları açıldı.


Bildirimi Kapat
Mega linklerinin şikayet edilmemesi için global erişime kapatıp sadece yorum yapanlara açıyoruz. Bu linkleri gizleme işlemini mecburen yapıyoruz ve yorum yapmanızın siteye değil size faydası vardır. Teşekkürler yazmayı çok görüp, Random/Spam/Anlamsız mesajlar atarak forumu kirletip Mega linklerini açmaya çalışan kullanıcılara süresiz ban atacağız.

Premium Üyelik Al

Platform (El Hoyo) - 2019 - TR - BRRip XviD
BroserBros
Platform (El Hoyo) - 2019 - TR - BRRip XviD
2
324
  • Derecelendirme: 0/5 - 0 oy
  • 1
  • 2
  • 3
  • 4
  • 5
Konuyu Okuyanlar:1 Ziyaretçi
Şuan Online!
Filmin Yayınlanma Tarihi: 2019 
WWW
Şuan Online!
BroserBros Kurucu Admin
*******
Admin








 Platform



İspanyol yapımı ve Netflix tarafından üstlenilen bu filmde, dikey bir hapishane konu ediliyor. Bu hapishanenin dezavantajı ise, yemek sağlamak için kimsenin gelmemesi. Yemek yukarıdan aşağı doğru veriliyor ve herkese istediği yiyeceği alması için sadece 2 dakika veriliyor. Aslında bu süre aç bir insan için gayet yeterli. İlk seviyede ki insanlar tıka basa doyarken, alt kattaki hücrelere çok az yiyecek kalmış oluyor. Hatta bazen hiç yemek kalmıyor ve alt kattakiler de vahşileşerek cevap veriyor. Bu durumunun mantıksız olduğunu savunan bir mahkum, başkaldıracaktır.

Platform (2019) (El Hoyo) Filmi Imdb'den 120,000 kişi tarafından oylandı ve 7,0 puan aldı. Bu film için editör puanı 7,0 olarak belirlendi. İyi Seyirler!

Teknik Detaylar

Kod :
General
Complete name                            : /root/Desktop/2/The.Platform.2019.BRRip.XviD.TR.Filmbol.avi
Format                                  : AVI
Format/Info                              : Audio Video Interleave
File size                                : 1.52 GiB
Duration                                : 1h 34mn
Overall bit rate                        : 2 301 Kbps
Writing application                      : VirtualDubMod 1.5.10.3 | www.virtualdub-fr.org || (build 2550/release) VirtualDubMod build 2550/release

Video
ID                                      : 0
Format                                  : MPEG-4 Visual
Format profile                          : Advanced [email protected]
Format settings, BVOP                    : 2
Format settings, QPel                    : No
Format settings, GMC                    : No warppoints
Format settings, Matrix                  : Custom
Muxing mode                              : Packed bitstream
Codec ID                                : XVID
Codec ID/Hint                            : XviD
Duration                                : 1h 34mn
Bit rate                                : 2 164 Kbps
Width                                    : 720 pixels
Height                                  : 304 pixels
Display aspect ratio                    : 2.35:1
Frame rate                              : 25.000 fps
Color space                              : YUV
Chroma subsampling                      : 4:2:0
Bit depth                                : 8 bits
Scan type                                : Progressive
Compression mode                        : Lossy
Bits/(Pixel*Frame)                      : 0.395
Stream size                              : 1.43 GiB (94%)
Writing library                          : XviD 1.2.1 (UTC 2008-12-04)

Audio
ID                                      : 1
Format                                  : MPEG Audio
Format version                          : Version 1
Format profile                          : Layer 3
Mode                                    : Joint stereo
Mode extension                          : MS Stereo
Codec ID                                : 55
Codec ID/Hint                            : MP3
Duration                                : 1h 34mn
Bit rate mode                            : Constant
Bit rate                                : 128 Kbps
Channel(s)                              : 2 channels
Sampling rate                            : 48.0 KHz
Compression mode                        : Lossy
Stream size                              : 86.8 MiB (6%)
Alignment                                : Aligned on interleaves
Interleave, duration                    : 40 ms (1.00 video frame)
Interleave, preload duration            : 504 ms
Writing library                          : LAME3.98.4
Language                                : Belirsiz

Film Detayları


 Platform

 Platform

 Platform


Film Fragmanı


Film Detayları



Zip Şifresi: filmbol.org Aşağıdaki butona tıklayarak kopyalabilirsiniz.



Uptobox ile indir

1Fichier ile indir

1Fichier'den İndiremiyor musun? Tıklayın!


Mega linki şuan da gizli. Kullanıma açmak için konuya yorum yapın ve ardından sayfayı yenileyin.

Mega


Bunun için üzgünüz ancak, bu linke sadece premium üyeler erişebilir.

Filmbol Cloud

Şuan Online!
Şuan Online!
BroserBros Kurucu Admin
*******
Admin

07.02.2021 Yönetici Notu:

Kırık linkler kontrol edildi, kaldırıldı ve yenilendi. Tüm linkler tamamen çalışır durumda.
Şuan Offine!
Şuan Offine!
Furkan61 Cezalı Üye

  • Konular0
  • Mesajlar329
çok güzel


Hızlı Menü: