Filmbol Forum Film İndir FHD - FULL HD v Oyunbozan (Systemsprenger) - 2019 - TR+ENG - FHD
Bildirimi Kapat
Üyelik alımları açıldı.


Bildirimi Kapat
Mega linklerinin şikayet edilmemesi için global erişime kapatıp sadece yorum yapanlara açıyoruz. Bu linkleri gizleme işlemini mecburen yapıyoruz ve yorum yapmanızın siteye değil size faydası vardır. Teşekkürler yazmayı çok görüp, Random/Spam/Anlamsız mesajlar atarak forumu kirletip Mega linklerini açmaya çalışan kullanıcılara süresiz ban atacağız.

Premium Üyelik Al

Oyunbozan (Systemsprenger) - 2019 - TR+ENG - FHD
BroserBros
Oyunbozan (Systemsprenger) - 2019 - TR+ENG - FHD
0
371
  • Derecelendirme: 0/5 - 0 oy
  • 1
  • 2
  • 3
  • 4
  • 5
Konuyu Okuyanlar:3 Ziyaretçi
Şuan Online!
Filmin Yayınlanma Tarihi: 2019 
WWW
Şuan Online!
BroserBros Kurucu Admin
*******
Admin








 Oyunbozan



Benni, tuhaf bir kız çocuğudur. Annesi ve Babası olmadığı için evsizler kurumunda kalmaktadır ancak benni zaten aile istememektedir. Evsizler kurumu ona bir çok kere bakıcı ebeveyn bulmayı başarmıştır fakat benni her seferinde kuruma tekrar gelerek sessizliğini korumuştur. Bir gün bakıcısı onu doğaya çıkartır ve eğlenceli vakit geçirmesini sağlar fakat şehre tekrar döndüklerinde benni ailesiz olduğunu hatırlayacak ve yeniden öfkelenmeye başlayacaktır...

Oyunbozan (2019) (Systemsprenger) Filmi Imdb'den 6,000 kişi tarafından oylandı ve 7,9 puan aldı. Bu film için editör puanı 6,9 olarak belirlendi. İyi Seyirler!

Teknik Detaylar

Kod :
General
Unique ID                                : 190825207945387679947437908403947056637 (0x8F8F992475E8AA2BF2578357C9B82DFD)
Complete name                            : /root/Desktop/2/Oyun.Bozan.2019.1080p.BluRay.x264.TR.GER.Filmbol.mkv
Format                                  : Matroska
Format version                          : Version 4 / Version 2
File size                                : 2.21 GiB
Duration                                : 2h 0mn
Overall bit rate                        : 2 635 Kbps
Movie name                              : Oyun Bozan - System Crasher (2019) - Filmbol.org
Encoded date                            : UTC 2020-05-03 08:59:13
Writing application                      : mkvmerge v8.8.0 ('Wind at my back') 64bit
Writing library                          : libebml v1.3.3 + libmatroska v1.4.4

Video
ID                                      : 1
Format                                  : AVC
Format/Info                              : Advanced Video Codec
Format profile                          : [email protected]
Format settings, CABAC                  : Yes
Format settings, ReFrames                : 4 frames
Codec ID                                : V_MPEG4/ISO/AVC
Duration                                : 2h 0mn
Bit rate                                : 2 250 Kbps
Width                                    : 1 920 pixels
Height                                  : 1 024 pixels
Display aspect ratio                    : 1.85:1
Frame rate mode                          : Constant
Frame rate                              : 25.000 fps
Color space                              : YUV
Chroma subsampling                      : 4:2:0
Bit depth                                : 8 bits
Scan type                                : Progressive
Bits/(Pixel*Frame)                      : 0.046
Stream size                              : 1.89 GiB (85%)
Title                                    : Filmbol.org
Writing library                          : x264 core 158
Encoding settings                        : cabac=1 / ref=4 / deblock=1:-1:-1 / analyse=0x3:0x133 / me=umh / subme=9 / psy=1 / psy_rd=1.00:0.15 / mixed_ref=1 / me_range=24 / chroma_me=1 / trellis=2 / 8x8dct=1 / cqm=0 / deadzone=21,11 / fast_pskip=0 / chroma_qp_offset=-3 / threads=12 / lookahead_threads=1 / sliced_threads=0 / nr=0 / decimate=1 / interlaced=0 / bluray_compat=0 / constrained_intra=0 / bframes=3 / b_pyramid=2 / b_adapt=2 / b_bias=0 / direct=3 / weightb=1 / open_gop=0 / weightp=2 / keyint=250 / keyint_min=23 / scenecut=40 / intra_refresh=0 / rc_lookahead=60 / rc=2pass / mbtree=1 / bitrate=2250 / ratetol=1.0 / qcomp=0.60 / qpmin=0 / qpmax=69 / qpstep=4 / cplxblur=20.0 / qblur=0.5 / vbv_maxrate=31250 / vbv_bufsize=31250 / nal_hrd=none / filler=0 / ip_ratio=1.40 / aq=1:1.00
Default                                  : Yes
Forced                                  : No

Audio #1
ID                                      : 2
Format                                  : AC-3
Format/Info                              : Audio Coding 3
Mode extension                          : CM (complete main)
Format settings, Endianness              : Big
Codec ID                                : A_AC3
Duration                                : 2h 0mn
Bit rate mode                            : Constant
Bit rate                                : 192 Kbps
Channel(s)                              : 2 channels
Channel positions                        : Front: L R
Sampling rate                            : 48.0 KHz
Frame rate                              : 31.250 fps (1536 spf)
Compression mode                        : Lossy
Stream size                              : 165 MiB (7%)
Title                                    : Filmbol.org
Language                                : Turkish
Default                                  : Yes
Forced                                  : No

Audio #2
ID                                      : 3
Format                                  : AC-3
Format/Info                              : Audio Coding 3
Mode extension                          : CM (complete main)
Format settings, Endianness              : Big
Codec ID                                : A_AC3
Duration                                : 2h 0mn
Bit rate mode                            : Constant
Bit rate                                : 192 Kbps
Channel(s)                              : 2 channels
Channel positions                        : Front: L R
Sampling rate                            : 48.0 KHz
Frame rate                              : 31.250 fps (1536 spf)
Compression mode                        : Lossy
Stream size                              : 165 MiB (7%)
Title                                    : Filmbol.org
Language                                : German
Default                                  : No
Forced                                  : No

Text
ID                                      : 4
Format                                  : UTF-8
Codec ID                                : S_TEXT/UTF8
Codec ID/Info                            : UTF-8 Plain Text
Duration                                : 1h 54mn
Bit rate                                : 41 bps
Count of elements                        : 1113
Stream size                              : 34.7 KiB (0%)
Title                                    : Filmbol.org
Language                                : Turkish
Default                                  : No
Forced                                  : No

Film Detayları


 Oyunbozan

 Oyunbozan

 Oyunbozan


Film Fragmanı


Film Detayları



Zip Şifresi: filmbol.org Aşağıdaki butona tıklayarak kopyalabilirsiniz.


Mega linki şuan da gizli. Kullanıma açmak için konuya yorum yapın ve ardından sayfayı yenileyin.

Mega


Bunun için üzgünüz ancak, bu linke sadece premium üyeler erişebilir.

Filmbol Cloud



Hızlı Menü: