Filmbol Forum Film İndir FHD - FULL HD v İsimsiz Katiller (Killers Anonymous) - 2019 - TR+ENG - FHD
Bildirimi Kapat
Üyelik alımları açıldı.


Bildirimi Kapat
Mega linklerinin şikayet edilmemesi için global erişime kapatıp sadece yorum yapanlara açıyoruz. Bu linkleri gizleme işlemini mecburen yapıyoruz ve yorum yapmanızın siteye değil size faydası vardır. Teşekkürler yazmayı çok görüp, Random/Spam/Anlamsız mesajlar atarak forumu kirletip Mega linklerini açmaya çalışan kullanıcılara süresiz ban atacağız.

Premium Üyelik Al

İsimsiz Katiller (Killers Anonymous) - 2019 - TR+ENG - FHD
BroserBros
İsimsiz Katiller (Killers Anonymous) - 2019 - TR+ENG - FHD
0
279
  • Derecelendirme: 0/5 - 0 oy
  • 1
  • 2
  • 3
  • 4
  • 5
Konuyu Okuyanlar:1 Ziyaretçi
Şuan Online!
Filmin Yayınlanma Tarihi: 2019 
WWW
Şuan Online!
BroserBros Kurucu Admin
*******
Admin








 İsimsiz Katiller



Suçluları en kolay suçlular bulur. Bunu dikkate alan ABD hükümeti, katillerden oluşan bir ekip hazırlar ve senatöre yapılan bir suikast girişimini ortaya çıkarmaya çalışacaktır...

İsimsiz Katiller (2019) (Killers Anonymous) Filmi Imdb'den 7,000 kişi tarafından oylandı ve 5,3 puan aldı. Bu film için editör puanı 5,5 olarak belirlendi. İyi Seyirler!

Teknik Detaylar

Kod :
General
Unique ID                                : 73934363782271879761690991564493305419 (0x379F3D923E5A099CB2B4326D970E364B)
Complete name                            : /root/Desktop/1/Isimsiz.Katiller.2019.1080p.BLURAY.x264.TR+ENG.Filmbol.mkv
Format                                  : Matroska
Format version                          : Version 4 / Version 2
File size                                : 1.66 GiB
Duration                                : 1h 36mn
Overall bit rate                        : 2 474 Kbps
Movie name                              : İsimsiz Katiller - Killer Anonymous (2019) - Filmbol.org
Encoded date                            : UTC 2020-04-28 12:37:13
Writing application                      : mkvmerge v8.8.0 ('Wind at my back') 64bit
Writing library                          : libebml v1.3.3 + libmatroska v1.4.4

Video
ID                                      : 1
Format                                  : AVC
Format/Info                              : Advanced Video Codec
Format profile                          : [email protected]
Format settings, CABAC                  : Yes
Format settings, ReFrames                : 4 frames
Codec ID                                : V_MPEG4/ISO/AVC
Duration                                : 1h 35mn
Bit rate                                : 2 100 Kbps
Width                                    : 1 920 pixels
Height                                  : 816 pixels
Display aspect ratio                    : 2.35:1
Frame rate mode                          : Constant
Frame rate                              : 23.976 (24000/1001) fps
Color space                              : YUV
Chroma subsampling                      : 4:2:0
Bit depth                                : 8 bits
Scan type                                : Progressive
Bits/(Pixel*Frame)                      : 0.056
Stream size                              : 1.41 GiB (84%)
Title                                    : Filmbol.org
Writing library                          : x264 core 152
Encoding settings                        : cabac=1 / ref=4 / deblock=1:-1:-1 / analyse=0x3:0x133 / me=umh / subme=9 / psy=1 / psy_rd=1.00:0.15 / mixed_ref=1 / me_range=24 / chroma_me=1 / trellis=2 / 8x8dct=1 / cqm=0 / deadzone=21,11 / fast_pskip=0 / chroma_qp_offset=-3 / threads=12 / lookahead_threads=1 / sliced_threads=0 / nr=0 / decimate=1 / interlaced=0 / bluray_compat=0 / constrained_intra=0 / bframes=3 / b_pyramid=2 / b_adapt=2 / b_bias=0 / direct=3 / weightb=1 / open_gop=0 / weightp=2 / keyint=250 / keyint_min=23 / scenecut=40 / intra_refresh=0 / rc_lookahead=60 / rc=2pass / mbtree=1 / bitrate=2100 / ratetol=1.0 / qcomp=0.60 / qpmin=0 / qpmax=69 / qpstep=4 / cplxblur=20.0 / qblur=0.5 / vbv_maxrate=31250 / vbv_bufsize=31250 / nal_hrd=none / filler=0 / ip_ratio=1.40 / aq=1:1.00
Default                                  : Yes
Forced                                  : No

Audio #1
ID                                      : 2
Format                                  : AC-3
Format/Info                              : Audio Coding 3
Mode extension                          : CM (complete main)
Format settings, Endianness              : Big
Codec ID                                : A_AC3
Duration                                : 1h 36mn
Bit rate mode                            : Constant
Bit rate                                : 192 Kbps
Channel(s)                              : 2 channels
Channel positions                        : Front: L R
Sampling rate                            : 48.0 KHz
Frame rate                              : 31.250 fps (1536 spf)
Compression mode                        : Lossy
Stream size                              : 132 MiB (8%)
Title                                    : Filmbol.org
Language                                : Turkish
Default                                  : Yes
Forced                                  : No

Audio #2
ID                                      : 3
Format                                  : AC-3
Format/Info                              : Audio Coding 3
Mode extension                          : CM (complete main)
Format settings, Endianness              : Big
Codec ID                                : A_AC3
Duration                                : 1h 35mn
Bit rate mode                            : Constant
Bit rate                                : 192 Kbps
Channel(s)                              : 2 channels
Channel positions                        : Front: L R
Sampling rate                            : 48.0 KHz
Frame rate                              : 31.250 fps (1536 spf)
Compression mode                        : Lossy
Stream size                              : 132 MiB (8%)
Title                                    : Filmbol.org
Language                                : English
Default                                  : No
Forced                                  : No

Text
ID                                      : 4
Format                                  : UTF-8
Codec ID                                : S_TEXT/UTF8
Codec ID/Info                            : UTF-8 Plain Text
Duration                                : 1h 29mn
Bit rate                                : 67 bps
Count of elements                        : 1342
Stream size                              : 44.0 KiB (0%)
Title                                    : Filmbol.org
Language                                : Turkish
Default                                  : No
Forced                                  : No

Film Detayları


 İsimsiz Katiller

 İsimsiz Katiller

 İsimsiz Katiller


Film Fragmanı


Film Detayları



Zip Şifresi: filmbol.org Aşağıdaki butona tıklayarak kopyalabilirsiniz.


Mega linki şuan da gizli. Kullanıma açmak için konuya yorum yapın ve ardından sayfayı yenileyin.

Mega


Bunun için üzgünüz ancak, bu linke sadece premium üyeler erişebilir.

Filmbol Cloud



Hızlı Menü: