Filmbol Forum Film İndir BRRip XviD v Kara Noel (Black Christmas) - 2019 - TR - BRRip XviD
Bildirimi Kapat
Üyelik alımları açıldı.


Bildirimi Kapat
Mega linklerinin şikayet edilmemesi için global erişime kapatıp sadece yorum yapanlara açıyoruz. Bu linkleri gizleme işlemini mecburen yapıyoruz ve yorum yapmanızın siteye değil size faydası vardır. Teşekkürler yazmayı çok görüp, Random/Spam/Anlamsız mesajlar atarak forumu kirletip Mega linklerini açmaya çalışan kullanıcılara süresiz ban atacağız.

Premium Üyelik Al

Kara Noel (Black Christmas) - 2019 - TR - BRRip XviD
BroserBros
Kara Noel (Black Christmas) - 2019 - TR - BRRip XviD
3
365
  • Derecelendirme: 0/5 - 0 oy
  • 1
  • 2
  • 3
  • 4
  • 5
Konuyu Okuyanlar:2 Ziyaretçi
Şuan Online!
Filmin Yayınlanma Tarihi: 2019 
WWW
Şuan Online!
BroserBros Kurucu Admin
*******
Admin








 Kara Noel



Hawthorne Koleji, tatil günlerinde sessiz, sakin bir yere dönüşür. Okulun öğrencilerinden Riley Stone, Marty, Kris ve Jesse, güz döneminin sona ermesini bir parti ile kutlamaya karar verir. Ancak okulun beklenmeyen, ölümcül bir misafiri vardır. Siyah maskeli bir sapık, okuldaki kızları birer birer avlamaktadır. Kurban olan kadınların sayısı arttıkça, okuldaki diğer kızlar gibi Riley ve ekibi de büyük bir paniğe kapılır. Kızlar, artık kime güvenip güvenemeyeceklerini bilemeyecek haldedir. Katilin de bilmediği ve öğrenmesi gereken çok önemli bir şey vardır. Yeni nesil kadınlar, çaresiz bir şekilde ölümü beklemiyor, karşılık veriyordur. Bu savaşı bitirmek için öğrenciler de ellerinden geleni artlarına koymayacaklardır.

Kara Noel (2019) (Black Christmas) Filmi Imdb'den 8,000 kişi tarafından oylandı ve 3,2 puan aldı. Bu film için editör puanı 5,0 olarak belirlendi. İyi Seyirler!

Teknik Detaylar

Kod :
General
Complete name                            : /root/Desktop/4/Kara.Noel.2019.BRRip.XviD.TR.Filmbol.avi
Format                                  : AVI
Format/Info                              : Audio Video Interleave
File size                                : 969 MiB
Duration                                : 1h 32mn
Overall bit rate                        : 1 471 Kbps

Video
ID                                      : 0
Format                                  : MPEG-4 Visual
Format profile                          : [email protected]
Format settings, BVOP                    : No
Format settings, QPel                    : No
Format settings, GMC                    : No warppoints
Format settings, Matrix                  : Default (H.263)
Codec ID                                : XVID
Codec ID/Hint                            : XviD
Duration                                : 1h 32mn
Bit rate                                : 1 330 Kbps
Width                                    : 720 pixels
Height                                  : 302 pixels
Display aspect ratio                    : 2.40:1
Frame rate                              : 23.976 fps
Color space                              : YUV
Chroma subsampling                      : 4:2:0
Bit depth                                : 8 bits
Scan type                                : Progressive
Compression mode                        : Lossy
Bits/(Pixel*Frame)                      : 0.255
Stream size                              : 876 MiB (90%)
Writing library                          : Lavc58.35.100

Audio
ID                                      : 1
Format                                  : MPEG Audio
Format version                          : Version 1
Format profile                          : Layer 3
Mode                                    : Joint stereo
Codec ID                                : 55
Codec ID/Hint                            : MP3
Duration                                : 1h 32mn
Bit rate mode                            : Constant
Bit rate                                : 128 Kbps
Channel(s)                              : 2 channels
Sampling rate                            : 48.0 KHz
Compression mode                        : Lossy
Stream size                              : 84.4 MiB (9%)
Alignment                                : Aligned on interleaves
Interleave, duration                    : 24 ms (0.58 video frame)
Writing library                          : LAME3.99.5

Film Detayları


 Kara Noel

 Kara Noel

 Kara Noel


Film Fragmanı


Film Detayları



Zip Şifresi: filmbol.org Aşağıdaki butona tıklayarak kopyalabilirsiniz.



Uptobox ile indir

1Fichier ile indir

1Fichier'den İndiremiyor musun? Tıklayın!


Mega linki şuan da gizli. Kullanıma açmak için konuya yorum yapın ve ardından sayfayı yenileyin.

Mega


Bunun için üzgünüz ancak, bu linke sadece premium üyeler erişebilir.

Filmbol Cloud

Şuan Online!
Şuan Online!
BroserBros Kurucu Admin
*******
Admin

13.02.2021 Yönetici Notu:

Kırık linkler kontrol edildi, kaldırıldı ve yenilendi. Tüm linkler tamamen çalışır durumda.
Şuan Offine!
Şuan Offine!
Furkan61 Cezalı Üye

  • Konular0
  • Mesajlar329
saolun
Şuan Online!
Şuan Online!
TheSteeL Süper Moderatör
*****
Süper Moderatör

(14-06-2021, Saat: 18:40)Furkan61 Adlı Kullanıcıdan Alıntı: saolun
İyi Seyirler


Hızlı Menü: