⤤ Premium'a Yükselt

Ziyaretçi, diziler sık sık telif aldığı için artık MEGA linkleri eklememeye karar verdik. Yeni dizilerde mega linkleri görmeyeceksin. Bu bir hata olmadığı için, lütfen raporlama. x

Filmbol Forum Film İndir BRRip XviD v Amerikalı Kadın (American Woman) - 2018 - TR - BRRip XviD


Amerikalı Kadın (American Woman) - 2018 - TR - BRRip XviD
BroserBros
Amerikalı Kadın (American Woman) - 2018 - TR - BRRip XviD
1
590
  • Derecelendirme: 0/5 - 0 oy
  • 1
  • 2
  • 3
  • 4
  • 5
Konuyu Okuyanlar:1 Ziyaretçi
Şuan Online!
Filmin Yayınlanma Tarihi: 2018 
WWW
Rapor Et!
Şuan Online!
BroserBros Kurucu Admin
*******




 Amerikalı Kadın



American Woman, kızının kaybolmasının ardından torununu büyütmeye çalışan bir kadının hayatına odaklanıyor. Pennsylvania'nın küçük bir kasabasında yaşayan bir kadının kızı, ardında hiçbir iz bırakmadan ortadan kaybolur. Kızının kayboluşunun ardındaki sırrı öğrenmeye çalışan ve ümidini kaybetmeden kızını arayan kadın, bir yandan da torunu ile ilgilenmeye çalışır.

Amerikalı Kadın (2018) (American Woman) Filmi Imdb'den 3,600 kişi tarafından oylandı ve 6,8 puan aldı. Bu film için editör puanı 6,4 olarak belirlendi. İyi Seyirler!

Teknik Detaylar

Kod :
General
Complete name                            : /root/Desktop/3/Amerikalı.Kadın.2018.BDRip.XViD.TR.Filmbol.avi
Format                                  : AVI
Format/Info                              : Audio Video Interleave
File size                                : 1.40 GiB
Duration                                : 1h 51mn
Overall bit rate                        : 1 789 Kbps

Video
ID                                      : 0
Format                                  : MPEG-4 Visual
Format profile                          : Advanced [email protected]
Format settings, BVOP                    : 1
Format settings, QPel                    : No
Format settings, GMC                    : No warppoints
Format settings, Matrix                  : Custom
Codec ID                                : XVID
Codec ID/Hint                            : XviD
Duration                                : 1h 51mn
Bit rate                                : 1 648 Kbps
Width                                    : 720 pixels
Height                                  : 304 pixels
Display aspect ratio                    : 2.35:1
Frame rate                              : 23.976 (23976/1000) fps
Color space                              : YUV
Chroma subsampling                      : 4:2:0
Bit depth                                : 8 bits
Scan type                                : Progressive
Compression mode                        : Lossy
Bits/(Pixel*Frame)                      : 0.314
Stream size                              : 1.29 GiB (92%)
Writing library                          : XviD 73

Audio
ID                                      : 1
Format                                  : MPEG Audio
Format version                          : Version 1
Format profile                          : Layer 3
Mode                                    : Joint stereo
Mode extension                          : MS Stereo
Codec ID                                : 55
Codec ID/Hint                            : MP3
Duration                                : 1h 51mn
Bit rate mode                            : Constant
Bit rate                                : 128 Kbps
Channel(s)                              : 2 channels
Sampling rate                            : 48.0 KHz
Compression mode                        : Lossy
Stream size                              : 102 MiB (7%)
Alignment                                : Aligned on interleaves
Interleave, duration                    : 24 ms (0.58 video frame)

Film Detayları


 Amerikalı Kadın

 Amerikalı Kadın

 Amerikalı Kadın


Film Fragmanı


Film İndir


Rar Şifresi: filmbol.org



Uptobox ile indir











Şuan Online!
Rapor Et!
Şuan Online!
BroserBros Kurucu Admin
*******
13.02.2021 Yönetici Notu:

Kırık linkler kontrol edildi, kaldırıldı ve yenilendi. Tüm linkler tamamen çalışır durumda.


Hızlı Menü: