Filmbol Forum Film İndir 1080P v Kemiklerin Mirası (The Legacy of the Bones) - 2019 - TR - 1080P
Bildirimi Kapat
Üyelik alımları açıldı.


Bildirimi Kapat
Mega linklerinin şikayet edilmemesi için global erişime kapatıp sadece yorum yapanlara açıyoruz. Bu linkleri gizleme işlemini mecburen yapıyoruz ve yorum yapmanızın siteye değil size faydası vardır. Teşekkürler yazmayı çok görüp, Random/Spam/Anlamsız mesajlar atarak forumu kirletip Mega linklerini açmaya çalışan kullanıcılara süresiz ban atacağız.

Premium Üyelik Al

Kemiklerin Mirası (The Legacy of the Bones) - 2019 - TR - 1080P
BroserBros
Kemiklerin Mirası (The Legacy of the Bones) - 2019 - TR - 1080P
1
297
  • Derecelendirme: 0/5 - 0 oy
  • 1
  • 2
  • 3
  • 4
  • 5
Konuyu Okuyanlar:1 Ziyaretçi
Şuan Online!
Filmin Yayınlanma Tarihi: 2019 
WWW
Şuan Online!
BroserBros Kurucu Admin
*******
Admin








 Kemiklerin Mirası



Dokuz aylık hamile bir kadın olan müfettiş Amaia Salazar, üvey kızı Johana Márquez’in tecavüzünden ve cinayetinden sorumlu tutulan kişi Jason Medina’nın duruşması için beklemektedir. Duruşmadan hemen önce Medina cebinde bir notla mahkeme salonunun tuvaletinde ölü bulunur. Notta ise sadece “Tarttalo” yazmaktadır. Bu olay Amaia’nın erken doğum yapmasına neden olur. Doğumdan sonra Amaia’ya iki vaka devredilecek, olayların arkasındaki sır perdesi aralanacaktır.

Kemiklerin Mirası (2019) (The Legacy of the Bones) Filmi Imdb'den 1,500 kişi tarafından oylandı ve 6,2 puan aldı. Bu film için editör puanı 6,0 olarak belirlendi. İyi Seyirler!

Teknik Detaylar

Kod :
General
Unique ID                                : 229992058279883901282388607378837837465 (0xAD06DBF49CEE0187FAAB08CEBD019699)
Complete name                            : /root/Desktop/1/Kemiklerin.Mirası.2019.1080p.NF.WEB-DL.x264.TR.Filmbol.mkv
Format                                  : Matroska
Format version                          : Version 4 / Version 2
File size                                : 2.09 GiB
Duration                                : 2h 1mn
Overall bit rate                        : 2 467 Kbps
Movie name                              : Kemiklerin Mirası (2019) - Filmbol.org
Encoded date                            : UTC 2020-04-21 07:52:33
Writing application                      : mkvmerge v8.8.0 ('Wind at my back') 64bit
Writing library                          : libebml v1.3.3 + libmatroska v1.4.4

Video
ID                                      : 1
Format                                  : AVC
Format/Info                              : Advanced Video Codec
Format profile                          : [email protected]
Format settings, CABAC                  : Yes
Format settings, ReFrames                : 2 frames
Codec ID                                : V_MPEG4/ISO/AVC
Duration                                : 2h 1mn
Bit rate                                : 2 081 Kbps
Width                                    : 1 920 pixels
Height                                  : 1 080 pixels
Display aspect ratio                    : 16:9
Frame rate mode                          : Constant
Frame rate                              : 24.000 fps
Color space                              : YUV
Chroma subsampling                      : 4:2:0
Bit depth                                : 8 bits
Scan type                                : Progressive
Bits/(Pixel*Frame)                      : 0.042
Stream size                              : 1.77 GiB (84%)
Title                                    : 1080P
Default                                  : Yes
Forced                                  : No

Audio
ID                                      : 2
Format                                  : AC-3
Format/Info                              : Audio Coding 3
Mode extension                          : CM (complete main)
Format settings, Endianness              : Big
Codec ID                                : A_AC3
Duration                                : 2h 1mn
Bit rate mode                            : Constant
Bit rate                                : 384 Kbps
Channel(s)                              : 6 channels
Channel positions                        : Front: L C R, Side: L R, LFE
Sampling rate                            : 48.0 KHz
Frame rate                              : 31.250 fps (1536 spf)
Compression mode                        : Lossy
Stream size                              : 333 MiB (16%)
Title                                    : Türkçe
Language                                : Turkish
Default                                  : Yes
Forced                                  : No

Text
ID                                      : 3
Format                                  : UTF-8
Codec ID                                : S_TEXT/UTF8
Codec ID/Info                            : UTF-8 Plain Text
Duration                                : 2h 0mn
Bit rate                                : 4 bps
Count of elements                        : 116
Stream size                              : 3.59 KiB (0%)
Title                                    : KISIM
Language                                : Turkish
Default                                  : Yes
Forced                                  : Yes

Film Detayları


 Kemiklerin Mirası

 Kemiklerin Mirası

 Kemiklerin Mirası


Film Fragmanı


Film Detayları



Zip Şifresi: filmbol.org Aşağıdaki butona tıklayarak kopyalabilirsiniz.


Uptobox ile indir

1Fichier ile indir

1Fichier'den İndiremiyor musun? Tıklayın!


Mega linki şuan da gizli. Kullanıma açmak için konuya yorum yapın ve ardından sayfayı yenileyin.

Mega


Bunun için üzgünüz ancak, bu linke sadece premium üyeler erişebilir.

Filmbol Cloud

Şuan Online!
Şuan Online!
BroserBros Kurucu Admin
*******
Admin

13.02.2021 Yönetici Notu:

Kırık linkler kontrol edildi, kaldırıldı ve yenilendi. Tüm linkler tamamen çalışır durumda.


Hızlı Menü: