Filmbol Forum Film İndir 720P v İmparator: Yeraltı Dünyasının Hükümdarı (L'Empereur de Paris) - 2018 - TR - 720P
Bildirimi Kapat
Üyelik alımları açıldı.


Bildirimi Kapat
Mega linklerinin şikayet edilmemesi için global erişime kapatıp sadece yorum yapanlara açıyoruz. Bu linkleri gizleme işlemini mecburen yapıyoruz ve yorum yapmanızın siteye değil size faydası vardır. Teşekkürler yazmayı çok görüp, Random/Spam/Anlamsız mesajlar atarak forumu kirletip Mega linklerini açmaya çalışan kullanıcılara süresiz ban atacağız.

Premium Üyelik Al

İmparator: Yeraltı Dünyasının Hükümdarı (L'Empereur de Paris) - 2018 - TR - 720P
BroserBros
İmparator: Yeraltı Dünyasının Hükümdarı (L'Empereur de Paris) - 2018 - TR - 720P
1
314
  • Derecelendirme: 0/5 - 0 oy
  • 1
  • 2
  • 3
  • 4
  • 5
Konuyu Okuyanlar:1 Ziyaretçi
Şuan Online!
Filmin Yayınlanma Tarihi: 2018 
WWW
Şuan Online!
BroserBros Kurucu Admin
*******
Admin








 İmparator: Yeraltı Dünyasının Hükümdarı



Napolyon'un ezici rejimi altında eğer bir kişi devlet tarafından öldürülmek isteniyorsa, bunun kaçış yolu yoktur. Ancak François Vidocq, kurtulmayı başarmıştır ve paris sokaklarında bir efsane haline gelmiştir....

İmparator: Yeraltı Dünyasının Hükümdarı (2018) (L'Empereur de Paris) Filmi Imdb'den 4,000 kişi tarafından oylandı ve 6,3 puan aldı. Bu film için editör puanı 6,0 olarak belirlendi. İyi Seyirler!

Teknik Detaylar

Kod :
General
Unique ID                                : 142795819577292462941718631788906205718 (0x6B6D7977E57466A0284024EF5162D216)
Complete name                            : /root/Desktop/6/Imparator.Yeraltı.Dünyasının.Hükümdarı.2018.720p.BLURAY.x264.TR.Filmbol.mkv
Format                                  : Matroska
Format version                          : Version 4 / Version 2
File size                                : 1.24 GiB
Duration                                : 2h 0mn
Overall bit rate                        : 1 481 Kbps
Movie name                              : İmparator: Yeraltı Dünyasının Hükümdarı (2018) - Filmbol.org
Encoded date                            : UTC 2020-04-19 13:48:40
Writing application                      : mkvmerge v8.8.0 ('Wind at my back') 64bit
Writing library                          : libebml v1.3.3 + libmatroska v1.4.4

Video
ID                                      : 1
Format                                  : AVC
Format/Info                              : Advanced Video Codec
Format profile                          : [email protected]
Format settings, CABAC                  : Yes
Format settings, ReFrames                : 2 frames
Codec ID                                : V_MPEG4/ISO/AVC
Duration                                : 2h 0mn
Bit rate                                : 1 286 Kbps
Width                                    : 1 280 pixels
Height                                  : 536 pixels
Display aspect ratio                    : 2.40:1
Frame rate mode                          : Constant
Frame rate                              : 23.976 (24000/1001) fps
Color space                              : YUV
Chroma subsampling                      : 4:2:0
Bit depth                                : 8 bits
Scan type                                : Progressive
Bits/(Pixel*Frame)                      : 0.078
Stream size                              : 1.08 GiB (87%)
Title                                    : 720P - Filmbol.org
Language                                : English
Default                                  : Yes
Forced                                  : No

Audio
ID                                      : 2
Format                                  : AC-3
Format/Info                              : Audio Coding 3
Mode extension                          : CM (complete main)
Format settings, Endianness              : Big
Codec ID                                : A_AC3
Duration                                : 2h 0mn
Bit rate mode                            : Constant
Bit rate                                : 192 Kbps
Channel(s)                              : 2 channels
Channel positions                        : Front: L R
Sampling rate                            : 48.0 KHz
Frame rate                              : 31.250 fps (1536 spf)
Compression mode                        : Lossy
Stream size                              : 165 MiB (13%)
Title                                    : Türkçe
Language                                : Turkish
Default                                  : Yes
Forced                                  : No

Film Detayları


 İmparator: Yeraltı Dünyasının Hükümdarı

 İmparator: Yeraltı Dünyasının Hükümdarı

 İmparator: Yeraltı Dünyasının Hükümdarı


Film Fragmanı


Film Detayları



Zip Şifresi: filmbol.org Aşağıdaki butona tıklayarak kopyalabilirsiniz.


Uptobox ile indir

1Fichier ile indir

1Fichier'den İndiremiyor musun? Tıklayın!


Mega linki şuan da gizli. Kullanıma açmak için konuya yorum yapın ve ardından sayfayı yenileyin.

Mega


Bunun için üzgünüz ancak, bu linke sadece premium üyeler erişebilir.

Filmbol Cloud

Şuan Online!
Şuan Online!
BroserBros Kurucu Admin
*******
Admin

13.02.2021 Yönetici Notu:

Kırık linkler kontrol edildi, kaldırıldı ve yenilendi. Tüm linkler tamamen çalışır durumda.


Hızlı Menü: