Filmbol Forum Film İndir FHD - FULL HD v Aşk. Düğün. Tekrar Et. (Love Wedding Repeat) - 2020 - TR+ENG - FHD
Bildirimi Kapat
Üyelik alımları açıldı.


Bildirimi Kapat
Mega linklerinin şikayet edilmemesi için global erişime kapatıp sadece yorum yapanlara açıyoruz. Bu linkleri gizleme işlemini mecburen yapıyoruz ve yorum yapmanızın siteye değil size faydası vardır. Teşekkürler yazmayı çok görüp, Random/Spam/Anlamsız mesajlar atarak forumu kirletip Mega linklerini açmaya çalışan kullanıcılara süresiz ban atacağız.

Premium Üyelik Al

Aşk. Düğün. Tekrar Et. (Love Wedding Repeat) - 2020 - TR+ENG - FHD
BroserBros
Aşk. Düğün. Tekrar Et. (Love Wedding Repeat) - 2020 - TR+ENG - FHD
0
251
  • Derecelendirme: 0/5 - 0 oy
  • 1
  • 2
  • 3
  • 4
  • 5
Konuyu Okuyanlar:1 Ziyaretçi
Şuan Online!
Filmin Yayınlanma Tarihi: 2020 
WWW
Şuan Online!
BroserBros Kurucu Admin
*******
Admin








 Aşk. Düğün. Tekrar Et.



Jack kardeşinin düğünü için hazırlık yapmaya başlamıştır, her şey eksiksiz ve mükemmel olmalıdır. Jack herşey tamamlandıktan sonra düğüne hediye olarak bir eski sevgili davet eder ve bu ortalığın karışmasına sebep olacaktır...

Aşk. Düğün. Tekrar Et. (2020) (Love Wedding Repeat) Filmi Imdb'den 10,000 kişi tarafından oylandı ve 5,5 puan aldı. Bu film için editör puanı 5,0 olarak belirlendi. İyi Seyirler!

Teknik Detaylar

Kod :
General
Unique ID                                : 217055148933321997913825537927864256114 (0xA34B4D1453A5F1173DC283C684BA0672)
Complete name                            : /root/Desktop/5/Aşk.Düğün.Tekrar.Et.2020.1080p.WEB-DL.x264.TR.mkv
Format                                  : Matroska
Format version                          : Version 4 / Version 2
File size                                : 1.74 GiB
Duration                                : 1h 40mn
Overall bit rate                        : 2 467 Kbps
Movie name                              : Aşk Düğün Tekrar Et (2020) - Filmbol.org
Encoded date                            : UTC 2020-04-19 13:33:29
Writing application                      : mkvmerge v8.8.0 ('Wind at my back') 64bit
Writing library                          : libebml v1.3.3 + libmatroska v1.4.4

Video
ID                                      : 1
Format                                  : AVC
Format/Info                              : Advanced Video Codec
Format profile                          : [email protected]
Format settings, CABAC                  : Yes
Format settings, ReFrames                : 2 frames
Codec ID                                : V_MPEG4/ISO/AVC
Duration                                : 1h 40mn
Bit rate                                : 2 081 Kbps
Width                                    : 1 920 pixels
Height                                  : 1 080 pixels
Display aspect ratio                    : 16:9
Frame rate mode                          : Constant
Frame rate                              : 24.000 fps
Color space                              : YUV
Chroma subsampling                      : 4:2:0
Bit depth                                : 8 bits
Scan type                                : Progressive
Bits/(Pixel*Frame)                      : 0.042
Stream size                              : 1.47 GiB (84%)
Title                                    : 1080P - Filmbol.org
Default                                  : Yes
Forced                                  : No

Audio
ID                                      : 2
Format                                  : AC-3
Format/Info                              : Audio Coding 3
Mode extension                          : CM (complete main)
Format settings, Endianness              : Big
Codec ID                                : A_AC3
Duration                                : 1h 40mn
Bit rate mode                            : Constant
Bit rate                                : 384 Kbps
Channel(s)                              : 6 channels
Channel positions                        : Front: L C R, Side: L R, LFE
Sampling rate                            : 48.0 KHz
Frame rate                              : 31.250 fps (1536 spf)
Compression mode                        : Lossy
Stream size                              : 277 MiB (16%)
Title                                    : Türkçe
Language                                : Turkish
Default                                  : Yes
Forced                                  : No

Text
ID                                      : 3
Format                                  : UTF-8
Codec ID                                : S_TEXT/UTF8
Codec ID/Info                            : UTF-8 Plain Text
Duration                                : 1h 36mn
Bit rate                                : 0 bps
Count of elements                        : 30
Stream size                              : 514 Bytes (0%)
Title                                    : KISIM
Language                                : Turkish
Default                                  : Yes
Forced                                  : Yes

Film Detayları


 Aşk. Düğün. Tekrar Et.

 Aşk. Düğün. Tekrar Et.

 Aşk. Düğün. Tekrar Et.


Film Fragmanı


Film Detayları

Mega linki şuan da gizli. Kullanıma açmak için konuya yorum yapın ve ardından sayfayı yenileyin.

Mega


Bunun için üzgünüz ancak, bu linke sadece premium üyeler erişebilir.

Filmbol Cloud



Hızlı Menü: