Filmbol Forum Film İndir FHD - FULL HD v Sihirli Güreşçi (The Main Event) - 2020 - TR+ENG - FHD
Bildirimi Kapat
Üyelik alımları açıldı.


Bildirimi Kapat
Mega linklerinin şikayet edilmemesi için global erişime kapatıp sadece yorum yapanlara açıyoruz. Bu linkleri gizleme işlemini mecburen yapıyoruz ve yorum yapmanızın siteye değil size faydası vardır. Teşekkürler yazmayı çok görüp, Random/Spam/Anlamsız mesajlar atarak forumu kirletip Mega linklerini açmaya çalışan kullanıcılara süresiz ban atacağız.

Premium Üyelik Al

Sihirli Güreşçi (The Main Event) - 2020 - TR+ENG - FHD
BroserBros
Sihirli Güreşçi (The Main Event) - 2020 - TR+ENG - FHD
0
333
  • Derecelendirme: 0/5 - 0 oy
  • 1
  • 2
  • 3
  • 4
  • 5
Konuyu Okuyanlar:1 Ziyaretçi
Şuan Online!
Filmin Yayınlanma Tarihi: 2020 
WWW
Şuan Online!
BroserBros Kurucu Admin
*******
Admin








 Sihirli Güreşçi



Leo Thompson bir maske bulur. Fakat bu sıradan bir maske değildir, taktığında ona özel güçler veren mükemmel bir maskedir. Bunun farkına varan Leo, büyükannesinin de desteği ile hayranı olduğu WWE'yi kasıp kavuracaktır...

Sihirli Güreşçi (2020) (The Main Event) Filmi Imdb'den 1,000 kişi tarafından oylandı ve 4,7 puan aldı. Bu film için editör puanı 4,5 olarak belirlendi. İyi Seyirler!

Teknik Detaylar

Kod :
General
Unique ID                                : 315132002352074501813917590017261961363 (0xED14374A3BAB24F89A325225A60C0093)
Complete name                            : /root/Desktop/4/Sihirli.Güreşçi.2020.1080p.WEB-DL.x264.TR.Filmbol.mkv
Format                                  : Matroska
Format version                          : Version 4 / Version 2
File size                                : 1.72 GiB
Duration                                : 1h 43mn
Overall bit rate                        : 2 383 Kbps
Movie name                              : Sihirli Güreşçi (2020) - Filmbol.org
Encoded date                            : UTC 2020-04-16 08:03:07
Writing application                      : mkvmerge v8.8.0 ('Wind at my back') 64bit
Writing library                          : libebml v1.3.3 + libmatroska v1.4.4

Video
ID                                      : 1
Format                                  : AVC
Format/Info                              : Advanced Video Codec
Format profile                          : [email protected]
Format settings, CABAC                  : Yes
Format settings, ReFrames                : 2 frames
Codec ID                                : V_MPEG4/ISO/AVC
Duration                                : 1h 43mn
Bit rate                                : 1 997 Kbps
Width                                    : 1 920 pixels
Height                                  : 1 080 pixels
Display aspect ratio                    : 16:9
Frame rate mode                          : Constant
Frame rate                              : 23.976 (24000/1001) fps
Color space                              : YUV
Chroma subsampling                      : 4:2:0
Bit depth                                : 8 bits
Scan type                                : Progressive
Bits/(Pixel*Frame)                      : 0.040
Stream size                              : 1.44 GiB (84%)
Title                                    : 1080P - Filmbol.org
Default                                  : Yes
Forced                                  : No

Audio
ID                                      : 2
Format                                  : AC-3
Format/Info                              : Audio Coding 3
Mode extension                          : CM (complete main)
Format settings, Endianness              : Big
Codec ID                                : A_AC3
Duration                                : 1h 43mn
Bit rate mode                            : Constant
Bit rate                                : 384 Kbps
Channel(s)                              : 6 channels
Channel positions                        : Front: L C R, Side: L R, LFE
Sampling rate                            : 48.0 KHz
Frame rate                              : 31.250 fps (1536 spf)
Compression mode                        : Lossy
Stream size                              : 284 MiB (16%)
Title                                    : Türkçe
Language                                : Turkish
Default                                  : Yes
Forced                                  : No

Text
ID                                      : 3
Format                                  : UTF-8
Codec ID                                : S_TEXT/UTF8
Codec ID/Info                            : UTF-8 Plain Text
Duration                                : 1h 39mn
Bit rate                                : 1 bps
Count of elements                        : 33
Stream size                              : 778 Bytes (0%)
Title                                    : KISIM
Language                                : Turkish
Default                                  : Yes
Forced                                  : No

Film Detayları


 Sihirli Güreşçi

 Sihirli Güreşçi

 Sihirli Güreşçi


Film Fragmanı


Film Detayları

Mega linki şuan da gizli. Kullanıma açmak için konuya yorum yapın ve ardından sayfayı yenileyin.

Mega


Bunun için üzgünüz ancak, bu linke sadece premium üyeler erişebilir.

Filmbol Cloud



Hızlı Menü: