⤤ Premium'a Yükselt
Filmbol Forum Film İndir BRRip XviD v Bloodshot: Durdurulamaz Güç (Bloodshot) - 2020 - TR - BRRip XviD | tt1634106

Filmbol TV kullanıma açıldı. Bu adresten giriş yapabilirsin: Giriş





Bloodshot: Durdurulamaz Güç (Bloodshot) - 2020 - TR - BRRip XviD | tt1634106
BroserBros
Bloodshot: Durdurulamaz Güç (Bloodshot) - 2020 - TR - BRRip XviD | tt1634106
5
835
  • Derecelendirme: 0/5 - 0 oy
  • 1
  • 2
  • 3
  • 4
  • 5
Konuyu Okuyanlar:2 Ziyaretçi
Şuan Online!
Filmin Yayınlanma Tarihi: 2020 
WWW
Rapor Et!
Şuan Online!
BroserBros Kurucu Admin
*******
Admin




[avimp3][/avimp3]








 Bloodshot: Durdurulamaz Güç



Bloodshot filminde bir askerin öldükten sonra bilim adamlarının uzun uğraş ve denemelerinin ardından yeniden hayata döndürülmesi konu ediniyor. Ray Garrison isimli bu adam geri dirildiğinde çok daha güçlü bir halde, hatta bilim adamlarının bile tahmininden daha güçlü bir şekilde dönecektir..

Bloodshot: Durdurulamaz Güç (2020) (Bloodshot) | tt1634106 Filmi Imdb'den 62,000 kişi tarafından oylandı ve 5,7 puan aldı. Bu film için editör puanı 6 olarak belirlendi. İyi Seyirler!

Teknik Detaylar

Kod :
General
Complete name                            : /home/BroserBros/Desktop/5/Bloodshot.Durdurulamaz.Güç.2020.BRRip.XviD.TR.ENG.Filmbol.avi
Format                                   : AVI
Format/Info                              : Audio Video Interleave
File size                                : 1.47 GiB
Duration                                 : 1 h 49 min
Overall bit rate                         : 1 928 kb/s
Writing application                      : VirtualDubMod 1.5.10.3 | www.virtualdub-fr.org || (build 2550/release) VirtualDubMod build 2550/release

Video
ID                                       : 0
Format                                   : MPEG-4 Visual
Format profile                           : [email protected]
Format settings, BVOP                    : No
Format settings, QPel                    : No
Format settings, GMC                     : No warppoints
Format settings, Matrix                  : Default (H.263)
Codec ID                                 : XVID
Codec ID/Hint                            : XviD
Duration                                 : 1 h 49 min
Bit rate                                 : 1 791 kb/s
Width                                    : 720 pixels
Height                                   : 300 pixels
Display aspect ratio                     : 2.40:1
Frame rate                               : 23.976 (24000/1001) FPS
Color space                              : YUV
Chroma subsampling                       : 4:2:0
Bit depth                                : 8 bits
Scan type                                : Progressive
Compression mode                         : Lossy
Bits/(Pixel*Frame)                       : 0.346
Stream size                              : 1.37 GiB (93%)
Writing library                          : Lavc58.1.100

Audio
ID                                       : 1
Format                                   : MPEG Audio
Format version                           : Version 1
Format profile                           : Layer 3
Format settings                          : Joint stereo / MS Stereo
Codec ID                                 : 55
Codec ID/Hint                            : MP3
Duration                                 : 1 h 49 min
Bit rate mode                            : Constant
Bit rate                                 : 128 kb/s
Channel(s)                               : 2 channels
Sampling rate                            : 48.0 kHz
Frame rate                               : 41.667 FPS (1152 SPF)
Compression mode                         : Lossy
Stream size                              : 100 MiB (7%)
Alignment                                : Aligned on interleaves
Interleave, duration                     : 42  ms (1.00 video frame)
Interleave, preload duration             : 504  ms
Language                                 : Belirsiz

Film Detayları


 Bloodshot: Durdurulamaz Güç

 Bloodshot: Durdurulamaz Güç

 Bloodshot: Durdurulamaz Güç


Film Fragmanı


Film İndir


Rar Şifresi: filmbol.org



Uptobox ile indir

1Fichier ile indir

1Fichier'den İndiremiyor musun? Tıklayın!












Şuan Offine!
Rapor Et!
Şuan Offine!
badboys755 Uzman Üye
**
Uzman Üye
  • Konular0
  • Mesajlar19
  • Rep puanı 0
teşekkürler
Şuan Offine!
Rapor Et!
Şuan Offine!
sectechno Premium Üye
****
  • Konular19
  • Mesajlar204
  • Rep puanı 47
Teşekkürler.İyi çalışmalar.
Şuan Offine!
Rapor Et!
Şuan Offine!
mrpsiko1 Üye
*
Üye
  • Konular0
  • Mesajlar2
  • Rep puanı 0
indirmeyi beceremedim (yardımcı olabilir misniz premium falan olmak istemiyorum)
Şuan Online!
Rapor Et!
Şuan Online!
BroserBros Kurucu Admin
*******
Admin
20.02.2021 Yönetici Notu:

Kırık linkler kontrol edildi, kaldırıldı ve yenilendi. Tüm linkler tamamen çalışır durumda.
Şuan Offine!
Rapor Et!
Şuan Offine!
parsreis Üye
*
Üye
  • Konular0
  • Mesajlar37
  • Rep puanı 0
Teşekkürler.


Hızlı Menü: