⤤ Premium'a Yükselt
Filmbol Forum Film İndir BRRip XviD v Soğuk İntikam (Cold Pursuit) - 2019 - TR - BRRip XviD | tt5719748

Filmbol TV kullanıma açıldı. Bu adresten giriş yapabilirsin: Giriş





Soğuk İntikam (Cold Pursuit) - 2019 - TR - BRRip XviD | tt5719748
BroserBros
Soğuk İntikam (Cold Pursuit) - 2019 - TR - BRRip XviD | tt5719748
2
584
  • Derecelendirme: 0/5 - 0 oy
  • 1
  • 2
  • 3
  • 4
  • 5
Konuyu Okuyanlar:2 Ziyaretçi
Şuan Online!
Filmin Yayınlanma Tarihi: 2019 
WWW
Rapor Et!
Şuan Online!
BroserBros Kurucu Admin
*******
Admin




[avimp3][/avimp3]








 Soğuk İntikam



Liam Neeson denilince akla ne gelebilirdi? Tabii ki İntikam! Liam Nesson'un yine güzel filmlerinden birisi olan "Soğuk İntikam" filminde uyuşturucu satıcısı hatta baronu olan birinin oğlunu öldürmesinden sonra intikam arayışına giren Nels, aslında sessiz birisi olsa da şimdi sessizliğini bozacaktır...

Soğuk İntikam (2019) (Cold Pursuit) | tt5719748 Filmi Imdb'den 60,000 kişi tarafından oylandı ve 6,2 puan aldı. Bu film için editör puanı 6 olarak belirlendi. İyi Seyirler!

Teknik Detaylar

Kod :
General
Complete name                            : /home/BroserBros/Desktop/6/Soğuk.İntikam.2019.BRRip.XviD.TR.Filmbol.avi
Format                                   : AVI
Format/Info                              : Audio Video Interleave
File size                                : 1.44 GiB
Duration                                 : 1 h 59 min
Overall bit rate                         : 1 736 kb/s
Writing application                      : VirtualDubMod 1.5.10.2 (build 2542/release) VirtualDubMod build 2542/release

Video
ID                                       : 0
Format                                   : MPEG-4 Visual
Format profile                           : Advanced [email protected]
Format settings                          : BVOP2 / Custom Matrix
Format settings, BVOP                    : 2
Format settings, QPel                    : No
Format settings, GMC                     : No warppoints
Format settings, Matrix                  : Custom
Muxing mode                              : Packed bitstream
Codec ID                                 : XVID
Codec ID/Hint                            : XviD
Duration                                 : 1 h 59 min
Bit rate                                 : 1 599 kb/s
Width                                    : 720 pixels
Height                                   : 304 pixels
Display aspect ratio                     : 2.35:1
Frame rate                               : 23.976 (24000/1001) FPS
Color space                              : YUV
Chroma subsampling                       : 4:2:0
Bit depth                                : 8 bits
Scan type                                : Progressive
Compression mode                         : Lossy
Bits/(Pixel*Frame)                       : 0.305
Stream size                              : 1.33 GiB (92%)
Writing library                          : XviD 1.2.1 (UTC 2008-12-04)

Audio
ID                                       : 1
Format                                   : MPEG Audio
Format version                           : Version 1
Format profile                           : Layer 3
Format settings                          : Joint stereo / MS Stereo
Codec ID                                 : 55
Codec ID/Hint                            : MP3
Duration                                 : 1 h 59 min
Bit rate mode                            : Constant
Bit rate                                 : 128 kb/s
Channel(s)                               : 2 channels
Sampling rate                            : 48.0 kHz
Compression mode                         : Lossy
Stream size                              : 109 MiB (7%)
Alignment                                : Aligned on interleaves
Interleave, duration                     : 42  ms (1.00 video frame)
Interleave, preload duration             : 504  ms
Writing library                          : LAME3.98.4
Language                                 : Belirsiz

Film Detayları


 Soğuk İntikam

 Soğuk İntikam

 Soğuk İntikam


Film Fragmanı


Film İndir


Rar Şifresi: filmbol.org



Uptobox ile indir

1Fichier ile indir

1Fichier'den İndiremiyor musun? Tıklayın!












Şuan Online!
Rapor Et!
Şuan Online!
BroserBros Kurucu Admin
*******
Admin
20.02.2021 Yönetici Notu:

Kırık linkler kontrol edildi, kaldırıldı ve yenilendi. Tüm linkler tamamen çalışır durumda.
Şuan Offine!
Rapor Et!
Şuan Offine!
Furkan61 Cezalı Üye
  • Konular0
  • Mesajlar288
güzel


Hızlı Menü: