⤤ Premium'a Yükselt
Filmbol Forum Film İndir BRRip XviD v Şimdi Yandık! (Playing with Fire) - 2019 - TR - BRRip XviD | tt9134216

Filmbol TV kullanıma açıldı. Bu adresten giriş yapabilirsin: Giriş





Şimdi Yandık! (Playing with Fire) - 2019 - TR - BRRip XviD | tt9134216
BroserBros
Şimdi Yandık! (Playing with Fire) - 2019 - TR - BRRip XviD | tt9134216
1
525
  • Derecelendirme: 0/5 - 0 oy
  • 1
  • 2
  • 3
  • 4
  • 5
Konuyu Okuyanlar:1 Ziyaretçi
Şuan Online!
Filmin Yayınlanma Tarihi: 2019 
WWW
Rapor Et!
Şuan Online!
BroserBros Kurucu Admin
*******
Admin




[avimp3][/avimp3]








 Şimdi Yandık!



İtfayeciler bir yangından başarılı bir şekilde üç çocuğu kurtarmıştır ancak olay bu şekilde bitmez. Çocuklara bakacak kimse olmadığı için bu görev onlara kalır ve çocukları evlerine alırlar. Ancak çocuklar o kadar uslu değillerdir ve bu itfayecileri bir çok sorun çıkarırlar...

Şimdi Yandık! (2019) (Playing with Fire) | tt9134216 Filmi Imdb'den 12,000 kişi tarafından oylandı ve 5,1 puan aldı. Bu film için editör puanı %49 olarak belirlendi. İyi Seyirler!

Teknik Detaylar

Kod :
General
Complete name                            : /home/BroserBros/Desktop/8/Şimdi.Yandık.2019.BRRip.XviD.TR.Filmbol.avi
Format                                   : AVI
Format/Info                              : Audio Video Interleave
File size                                : 1.16 GiB
Duration                                 : 1 h 35 min
Overall bit rate                         : 1 734 kb/s
Writing application                      : VirtualDubMod 1.5.10.3 | www.virtualdub-fr.org || (build 2550/release) VirtualDubMod build 2550/release

Video
ID                                       : 0
Format                                   : MPEG-4 Visual
Format profile                           : [email protected]
Format settings, BVOP                    : No
Format settings, QPel                    : No
Format settings, GMC                     : No warppoints
Format settings, Matrix                  : Default (H.263)
Codec ID                                 : XVID
Codec ID/Hint                            : XviD
Duration                                 : 1 h 35 min
Bit rate                                 : 1 597 kb/s
Width                                    : 720 pixels
Height                                   : 400 pixels
Display aspect ratio                     : 16:9
Frame rate                               : 23.976 (24000/1001) FPS
Color space                              : YUV
Chroma subsampling                       : 4:2:0
Bit depth                                : 8 bits
Scan type                                : Progressive
Compression mode                         : Lossy
Bits/(Pixel*Frame)                       : 0.231
Stream size                              : 1.07 GiB (92%)
Writing library                          : Lavc58.35.100

Audio
ID                                       : 1
Format                                   : MPEG Audio
Format version                           : Version 1
Format profile                           : Layer 3
Format settings                          : Joint stereo / MS Stereo
Codec ID                                 : 55
Codec ID/Hint                            : MP3
Duration                                 : 1 h 35 min
Bit rate mode                            : Constant
Bit rate                                 : 128 kb/s
Channel(s)                               : 2 channels
Sampling rate                            : 48.0 kHz
Frame rate                               : 41.667 FPS (1152 SPF)
Compression mode                         : Lossy
Stream size                              : 87.9 MiB (7%)
Alignment                                : Aligned on interleaves
Interleave, duration                     : 42  ms (1.00 video frame)
Interleave, preload duration             : 504  ms
Language                                 : Belirsiz

Film Detayları


 Şimdi Yandık!

 Şimdi Yandık!

 Şimdi Yandık!


Film Fragmanı


Film İndir


Rar Şifresi: filmbol.org



Uptobox ile indir

1Fichier ile indir

1Fichier'den İndiremiyor musun? Tıklayın!












Şuan Online!
Rapor Et!
Şuan Online!
BroserBros Kurucu Admin
*******
Admin
24.02.2021 Yönetici Notu:

Kırık linkler kontrol edildi, kaldırıldı ve yenilendi. Tüm linkler tamamen çalışır durumda.


Hızlı Menü: