⤤ Premium'a Yükselt
Filmbol Forum Film İndir 1080P v Amerikan Pastası 4: Bando Takımı (American Pie Band Camp) - 2005 - TR+ORG - 1080P | tt0436058

Filmbol TV kullanıma açıldı. Bu adresten giriş yapabilirsin: Giriş





Amerikan Pastası 4: Bando Takımı (American Pie Band Camp) - 2005 - TR+ORG - 1080P | tt0436058
BroserBros
Amerikan Pastası 4: Bando Takımı (American Pie Band Camp) - 2005 - TR+ORG - 1080P | tt0436058
7
798
  • Derecelendirme: 0/5 - 0 oy
  • 1
  • 2
  • 3
  • 4
  • 5
Konuyu Okuyanlar:2 Ziyaretçi
Şuan Online!
Filmin Yayınlanma Tarihi: 2005 
WWW
Rapor Et!
Şuan Online!
BroserBros Kurucu Admin
*******
Admin




[mkvac3][/mkvac3]








 Amerikan Pastası 4: Bando Takımı



Stifler'in erkek kardeşi bir ceza alır. Bu cezaya göre Matt yaz tatili boyunca gezip eğlenemeyecektir. Bunu yerine, Matt bir bando takımına girecektir. Bu Matt için pekte iyi bir olay değildir fakat buna mecburdur. Aslında Matt bunu istemese de bu olay onun için tatilden bile iyi geçecektir...

Amerikan Pastası 4: Bando Takımı (2005) (American Pie Band Camp) | tt0436058 Filmi Imdb'den 70,000 kişi tarafından oylandı ve 5,1 puan aldı. Bu film için editör puanı 6 olarak belirlendi. İyi Seyirler!

Teknik Detaylar

Kod :
General
Unique ID                                : 174504073435174908794967823082698136717 (0x834843155B72816006FBCA5BFB4D5C8D)
Complete name                            : /home/BroserBros/Desktop/2/Amerikan.Pastası.4.1080P.BluRay.x264.TR.Filmbol.mkv
Format                                   : Matroska
Format version                           : Version 4
File size                                : 1.71 GiB
Duration                                 : 1 h 31 min
Overall bit rate                         : 2 691 kb/s
Movie name                               : Amerikan Pastası 4 Bando Kampı - American Pie Presents Band Camp - 2005 | Filmbol.org
Encoded date                             : UTC 2021-02-19 11:34:03
Writing application                      : mkvmerge v53.0.0 ('Fool's Gold') 64-bit
Writing library                          : libebml v1.4.1 + libmatroska v1.6.2

Video
ID                                       : 1
Format                                   : AVC
Format/Info                              : Advanced Video Codec
Format profile                           : [email protected]
Format settings                          : CABAC / 4 Ref Frames
Format settings, CABAC                   : Yes
Format settings, Reference frames        : 4 frames
Codec ID                                 : V_MPEG4/ISO/AVC
Duration                                 : 1 h 31 min
Bit rate                                 : 2 500 kb/s
Width                                    : 1 908 pixels
Height                                   : 1 076 pixels
Display aspect ratio                     : 16:9
Frame rate mode                          : Variable
Frame rate                               : 23.976 (24000/1001) FPS
Color space                              : YUV
Chroma subsampling                       : 4:2:0
Bit depth                                : 8 bits
Scan type                                : Progressive
Bits/(Pixel*Frame)                       : 0.051
Stream size                              : 1.59 GiB (93%)
Title                                    : Amerikan Pastası 4 Bando Kampı - American Pie Presents Band Camp - 2005 | Filmbol.org
Writing library                          : x264 core 142 r2479 dd79a61
Encoding settings                        : cabac=1 / ref=1 / deblock=1:-1:-1 / analyse=0x3:0x113 / me=hex / subme=2 / psy=1 / psy_rd=1.00:0.15 / mixed_ref=0 / me_range=16 / chroma_me=1 / trellis=0 / 8x8dct=1 / cqm=0 / deadzone=21,11 / fast_pskip=1 / chroma_qp_offset=0 / threads=3 / lookahead_threads=1 / sliced_threads=0 / nr=0 / decimate=1 / interlaced=0 / bluray_compat=0 / constrained_intra=0 / bframes=3 / b_pyramid=2 / b_adapt=1 / b_bias=0 / direct=1 / weightb=1 / open_gop=0 / weightp=1 / keyint=240 / keyint_min=24 / scenecut=40 / intra_refresh=0 / rc_lookahead=10 / rc=2pass / mbtree=1 / bitrate=2500 / ratetol=1.0 / qcomp=0.60 / qpmin=0 / qpmax=69 / qpstep=4 / cplxblur=20.0 / qblur=0.5 / vbv_maxrate=62500 / vbv_bufsize=78125 / nal_hrd=none / filler=0 / ip_ratio=1.40 / aq=1:1.00
Default                                  : Yes
Forced                                   : No
Color range                              : Limited
Color primaries                          : BT.709
Transfer characteristics                 : BT.709
Matrix coefficients                      : BT.709

Audio
ID                                       : 2
Format                                   : AC-3
Format/Info                              : Audio Coding 3
Commercial name                          : Dolby Digital
Codec ID                                 : A_AC3
Duration                                 : 1 h 30 min
Bit rate mode                            : Constant
Bit rate                                 : 192 kb/s
Channel(s)                               : 2 channels
Channel layout                           : L R
Sampling rate                            : 44.1 kHz
Frame rate                               : 28.711 FPS (1536 SPF)
Compression mode                         : Lossy
Delay relative to video                  : 2 s 167 ms
Stream size                              : 124 MiB (7%)
Title                                    : Amerikan Pastası 4 Bando Kampı - American Pie Presents Band Camp - 2005 | Filmbol.org
Language                                 : Turkish
Service kind                             : Complete Main
Default                                  : Yes
Forced                                   : No

Film Detayları


 Amerikan Pastası 4: Bando Takımı

 Amerikan Pastası 4: Bando Takımı

 Amerikan Pastası 4: Bando Takımı


Film Fragmanı


Film İndir


Rar Şifresi: filmbol.org


Uptobox ile indir

1Fichier ile indir

1Fichier'den İndiremiyor musun? Tıklayın!












Şuan Online!
Rapor Et!
Şuan Online!
BroserBros Kurucu Admin
*******
Admin
20.02.2021 Yönetici Notu:

Kırık linkler kontrol edildi, kaldırıldı ve yenilendi. Tüm linkler tamamen çalışır durumda.
Şuan Offine!
Rapor Et!
Şuan Offine!
efsane245 Uzman Üye
**
Uzman Üye
  • Konular0
  • Mesajlar8
  • Rep puanı 0
teşekkürler
Şuan Offine!
Rapor Et!
Şuan Offine!
KeNZai Üye
*
Üye
  • Konular0
  • Mesajlar52
  • Rep puanı 0
teşekkürler
Şuan Offine!
Rapor Et!
Şuan Offine!
ahleten Uzman Üye
**
Uzman Üye
  • Konular0
  • Mesajlar180
  • Rep puanı 0
Teşekkürler.
Şuan Offine!
Rapor Et!
Şuan Offine!
gaminghesabi10 Üye
*
Üye
  • Konular0
  • Mesajlar194
  • Rep puanı 0
Teşekkürler.
Şuan Online!
Rapor Et!
Şuan Online!
ercancan222 Üye
*
Üye
  • Konular0
  • Mesajlar232
  • Rep puanı 0
sağolun
Şuan Offine!
Rapor Et!
Şuan Offine!
yedekhesap Üye
*
Üye
  • Konular0
  • Mesajlar3
  • Rep puanı 0
Teşekkürler.


Hızlı Menü: