⤤ Premium'a Yükselt
Filmbol Forum Film İndir 720P v Amerikan Pastası 3: Düğün (American Wedding) - 2003 - TR+ORG - 720P | tt0328828

Filmbol TV kullanıma açıldı. Bu adresten giriş yapabilirsin: Giriş





Amerikan Pastası 3: Düğün (American Wedding) - 2003 - TR+ORG - 720P | tt0328828
BroserBros
Amerikan Pastası 3: Düğün (American Wedding) - 2003 - TR+ORG - 720P | tt0328828
2
620
  • Derecelendirme: 0/5 - 0 oy
  • 1
  • 2
  • 3
  • 4
  • 5
Konuyu Okuyanlar:1 Ziyaretçi
Şuan Online!
Filmin Yayınlanma Tarihi: 2003 
WWW
Rapor Et!
Şuan Online!
BroserBros Kurucu Admin
*******
Admin




[mkvac3][/mkvac3]








 Amerikan Pastası 3: Düğün



Jim artık eskisi Jim değildir, şimdi kız arkadaşına evlenme teklifi etmeye hazırlanan Jim, bunu en sonunda yapabilmiştir. Teklifini kabul eden Michelle ise çok sevinçlidir ancak bir sorun vardır. Jim’in büyükannesi çok hastadır ve evliliğin bir an önce, büyükannesi ölmeden gerçekleşmesi gereklidir…

Amerikan Pastası 3: Düğün (2003) (American Wedding) | tt0328828 Filmi Imdb'den 200,000 kişi tarafından oylandı ve 6,3 puan aldı. Bu film için editör puanı 6 olarak belirlendi. İyi Seyirler!

Teknik Detaylar

Kod :
General
Unique ID                                : 105695895170391578852631295149440357027 (0x4F8449F8AD191B0A350B89506FE1D2A3)
Complete name                            : /home/BroserBros/Desktop/3/Amerikan.Pastası.3.Düğün.720p.BluRay.x264.TR.ENG.Filmbol.mkv
Format                                   : Matroska
Format version                           : Version 4
File size                                : 962 MiB
Duration                                 : 1 h 43 min
Overall bit rate                         : 1 301 kb/s
Movie name                               : Amerikan Pastası - Düğün (2003) - Filmbol.org
Encoded date                             : UTC 2021-02-19 08:03:21
Writing application                      : mkvmerge v53.0.0 ('Fool's Gold') 64-bit
Writing library                          : libebml v1.4.1 + libmatroska v1.6.2

Video
ID                                       : 1
Format                                   : AVC
Format/Info                              : Advanced Video Codec
Format profile                           : [email protected]
Format settings                          : CABAC / 8 Ref Frames
Format settings, CABAC                   : Yes
Format settings, Reference frames        : 8 frames
Codec ID                                 : V_MPEG4/ISO/AVC
Duration                                 : 1 h 43 min
Bit rate                                 : 999 kb/s
Width                                    : 1 280 pixels
Height                                   : 542 pixels
Display aspect ratio                     : 2.35:1
Frame rate mode                          : Constant
Frame rate                               : 23.976 (24000/1001) FPS
Color space                              : YUV
Chroma subsampling                       : 4:2:0
Bit depth                                : 8 bits
Scan type                                : Progressive
Bits/(Pixel*Frame)                       : 0.060
Stream size                              : 738 MiB (77%)
Title                                    : 720P - Filmbol.org
Writing library                          : x264 core 142 r2479 dd79a61
Encoding settings                        : cabac=1 / ref=8 / deblock=1:0:0 / analyse=0x3:0x113 / me=umh / subme=9 / psy=1 / psy_rd=1.00:0.00 / mixed_ref=1 / me_range=16 / chroma_me=1 / trellis=2 / 8x8dct=1 / cqm=0 / deadzone=21,11 / fast_pskip=1 / chroma_qp_offset=-2 / threads=12 / lookahead_threads=1 / sliced_threads=0 / nr=0 / decimate=1 / interlaced=0 / bluray_compat=0 / constrained_intra=0 / bframes=3 / b_pyramid=2 / b_adapt=2 / b_bias=0 / direct=3 / weightb=1 / open_gop=0 / weightp=2 / keyint=240 / keyint_min=24 / scenecut=40 / intra_refresh=0 / rc_lookahead=40 / rc=2pass / mbtree=1 / bitrate=999 / ratetol=1.0 / qcomp=0.60 / qpmin=0 / qpmax=69 / qpstep=4 / cplxblur=20.0 / qblur=0.5 / vbv_maxrate=62500 / vbv_bufsize=78125 / nal_hrd=none / filler=0 / ip_ratio=1.40 / aq=1:1.00
Default                                  : Yes
Forced                                   : No
Color range                              : Limited
Color primaries                          : BT.709
Transfer characteristics                 : BT.709
Matrix coefficients                      : BT.709

Audio #1
ID                                       : 2
Format                                   : AC-3
Format/Info                              : Audio Coding 3
Commercial name                          : Dolby Digital
Codec ID                                 : A_AC3
Duration                                 : 1 h 43 min
Bit rate mode                            : Constant
Bit rate                                 : 192 kb/s
Channel(s)                               : 2 channels
Channel layout                           : L R
Sampling rate                            : 48.0 kHz
Frame rate                               : 31.250 FPS (1536 SPF)
Compression mode                         : Lossy
Delay relative to video                  : -105 ms
Stream size                              : 142 MiB (15%)
Title                                    : Türkçe - Filmbol.org
Language                                 : Swati
Service kind                             : Complete Main
Default                                  : Yes
Forced                                   : No

Audio #2
ID                                       : 3
Format                                   : AAC LC
Format/Info                              : Advanced Audio Codec Low Complexity
Codec ID                                 : A_AAC-2
Duration                                 : 1 h 43 min
Bit rate                                 : 109 kb/s
Channel(s)                               : 2 channels
Channel layout                           : L R
Sampling rate                            : 48.0 kHz
Frame rate                               : 46.875 FPS (1024 SPF)
Compression mode                         : Lossy
Delay relative to video                  : -105 ms
Stream size                              : 80.3 MiB (8%)
Title                                    : İngilizce - Filmbol.org
Default                                  : No
Forced                                   : No

Film Detayları


 Amerikan Pastası 3: Düğün

 Amerikan Pastası 3: Düğün

 Amerikan Pastası 3: Düğün


Film Fragmanı


Film İndir


Rar Şifresi: filmbol.org


Uptobox ile indir

1Fichier ile indir

1Fichier'den İndiremiyor musun? Tıklayın!












Şuan Online!
Rapor Et!
Şuan Online!
BroserBros Kurucu Admin
*******
Admin
20.02.2021 Yönetici Notu:

Kırık linkler kontrol edildi, kaldırıldı ve yenilendi. Tüm linkler tamamen çalışır durumda.
Şuan Online!
Rapor Et!
Şuan Online!
leosanchez Üye
*
Üye
  • Konular0
  • Mesajlar275
  • Rep puanı 0
Teşekkürler.


Hızlı Menü: