⤤ Premium'a Yükselt
Filmbol Forum Film İndir 1080P v Amerikan pastası 2 (American Pie 2) - 2001 - TR+ORG - 1080P | tt0252866

Filmbol TV kullanıma açıldı. Bu adresten giriş yapabilirsin: Giriş





Amerikan pastası 2 (American Pie 2) - 2001 - TR+ORG - 1080P | tt0252866
BroserBros
Amerikan pastası 2 (American Pie 2) - 2001 - TR+ORG - 1080P | tt0252866
3
733
  • Derecelendirme: 0/5 - 0 oy
  • 1
  • 2
  • 3
  • 4
  • 5
Konuyu Okuyanlar:3 Ziyaretçi
Şuan Online!
Filmin Yayınlanma Tarihi: 2001 
WWW
Rapor Et!
Şuan Online!
BroserBros Kurucu Admin
*******
Admin




[mkvac3][/mkvac3]








 Amerikan pastası 2



Lise’nin ilk yılı artık sona ermiştir. Nadia kendini iyi hissetmektedir çünkü hedeflerini tamamlayabilmiştir. Ancak bir gün Jim’i ziyaret ettiğinde onun ihtiyaçlarını tam karşılayamadığını görür ve psikolojik olarak çöküşte olan Jim’e destek olmaya karar verir.

Amerikan pastası 2 (2001) (American Pie 2) | tt0252866 Filmi Imdb'den 240,000 kişi tarafından oylandı ve 6,4 puan aldı. Bu film için editör puanı 6 olarak belirlendi. İyi Seyirler!

Teknik Detaylar

Kod :
General
Unique ID                                : 68658961829269635619835097788637372401 (0x33A73C2C7B9633E5C1B2A2744F1DDFF1)
Complete name                            : /home/BroserBros/Desktop/1/Amerika.Pastası.2.2001.1080p.BluRay.x264.TR.ENG.Filmbol.mkv
Format                                   : Matroska
Format version                           : Version 4
File size                                : 2.27 GiB
Duration                                 : 1 h 50 min
Overall bit rate                         : 2 933 kb/s
Movie name                               : Amerikan Pastası (2001) - Filmbol.org
Encoded date                             : UTC 2021-02-19 12:15:19
Writing application                      : mkvmerge v53.0.0 ('Fool's Gold') 64-bit
Writing library                          : libebml v1.4.1 + libmatroska v1.6.2

Video
ID                                       : 1
Format                                   : AVC
Format/Info                              : Advanced Video Codec
Format profile                           : [email protected]
Format settings                          : CABAC / 4 Ref Frames
Format settings, CABAC                   : Yes
Format settings, Reference frames        : 4 frames
Codec ID                                 : V_MPEG4/ISO/AVC
Duration                                 : 1 h 50 min
Bit rate                                 : 2 050 kb/s
Width                                    : 1 920 pixels
Height                                   : 1 040 pixels
Display aspect ratio                     : 1.85:1
Frame rate mode                          : Constant
Frame rate                               : 23.976 (24000/1001) FPS
Color space                              : YUV
Chroma subsampling                       : 4:2:0
Bit depth                                : 8 bits
Scan type                                : Progressive
Bits/(Pixel*Frame)                       : 0.043
Stream size                              : 1.58 GiB (70%)
Title                                    : 1080P - Filmbol.org
Writing library                          : x264 core 148
Encoding settings                        : cabac=1 / ref=4 / deblock=1:-1:-1 / analyse=0x3:0x133 / me=umh / subme=9 / psy=1 / psy_rd=1.00:0.15 / mixed_ref=1 / me_range=24 / chroma_me=1 / trellis=2 / 8x8dct=1 / cqm=0 / deadzone=21,11 / fast_pskip=0 / chroma_qp_offset=-3 / threads=12 / lookahead_threads=1 / sliced_threads=0 / nr=0 / decimate=1 / interlaced=0 / bluray_compat=0 / constrained_intra=0 / bframes=3 / b_pyramid=2 / b_adapt=2 / b_bias=0 / direct=3 / weightb=1 / open_gop=0 / weightp=2 / keyint=250 / keyint_min=23 / scenecut=40 / intra_refresh=0 / rc_lookahead=60 / rc=2pass / mbtree=1 / bitrate=2050 / ratetol=1.0 / qcomp=0.60 / qpmin=0 / qpmax=69 / qpstep=4 / cplxblur=20.0 / qblur=0.5 / vbv_maxrate=31250 / vbv_bufsize=31250 / nal_hrd=none / filler=0 / ip_ratio=1.40 / aq=1:1.00
Default                                  : Yes
Forced                                   : No

Audio #1
ID                                       : 2
Format                                   : AAC LC
Format/Info                              : Advanced Audio Codec Low Complexity
Codec ID                                 : A_AAC-2
Duration                                 : 1 h 50 min
Bit rate                                 : 113 kb/s
Channel(s)                               : 2 channels
Channel layout                           : L R
Sampling rate                            : 48.0 kHz
Frame rate                               : 46.875 FPS (1024 SPF)
Compression mode                         : Lossy
Delay relative to video                  : -43 ms
Stream size                              : 89.1 MiB (4%)
Title                                    : İngilizce - Filmbol.org
Default                                  : No
Forced                                   : No

Audio #2
ID                                       : 3
Format                                   : DTS
Format/Info                              : Digital Theater Systems
Codec ID                                 : A_DTS
Duration                                 : 1 h 50 min
Bit rate mode                            : Constant
Bit rate                                 : 768 kb/s
Channel(s)                               : 6 channels
Channel layout                           : C L R Ls Rs LFE
Sampling rate                            : 48.0 kHz
Frame rate                               : 93.750 FPS (512 SPF)
Bit depth                                : 24 bits
Compression mode                         : Lossy
Delay relative to video                  : -43 ms
Stream size                              : 608 MiB (26%)
Title                                    : Türkçe - Filmbol.org
Language                                 : Turkish
Default                                  : Yes
Forced                                   : No

Film Detayları


 Amerikan pastası 2

 Amerikan pastası 2

 Amerikan pastası 2


Film Fragmanı


Film İndir


Rar Şifresi: filmbol.org


Uptobox ile indir

1Fichier ile indir

1Fichier'den İndiremiyor musun? Tıklayın!












Şuan Online!
Rapor Et!
Şuan Online!
BroserBros Kurucu Admin
*******
Admin
20.02.2021 Yönetici Notu:

Kırık linkler kontrol edildi, kaldırıldı ve yenilendi. Tüm linkler tamamen çalışır durumda.
Şuan Offine!
Rapor Et!
Şuan Offine!
KeNZai Üye
*
Üye
  • Konular0
  • Mesajlar52
  • Rep puanı 0
teşekkürler
Şuan Offine!
Rapor Et!
Şuan Offine!
trmntrmn Süper Üye
***
Super Üye
  • Konular0
  • Mesajlar802
  • Rep puanı 11
Teşekkürler.


Hızlı Menü: