⤤ Premium'a Yükselt
Filmbol Forum Film İndir 1080P v Mutsuzluğun Peşinde (Ode to Joy) Türkçe Dublaj BLURAY 1080P indir

Filmbol TV kullanıma açıldı. Bu adresten giriş yapabilirsin: Giriş





Mutsuzluğun Peşinde (Ode to Joy) Türkçe Dublaj BLURAY 1080P indir
BroserBros
Mutsuzluğun Peşinde (Ode to Joy) Türkçe Dublaj BLURAY 1080P indir
1
478
  • Derecelendirme: 0/5 - 0 oy
  • 1
  • 2
  • 3
  • 4
  • 5
Konuyu Okuyanlar:2 Ziyaretçi
Şuan Online!
Filmin Yayınlanma Tarihi: 2019 
WWW
Rapor Et!
Şuan Online!
BroserBros Kurucu Admin
*******
Admin



[süre]97 dakika[/süre]

[mkvac3][/mkvac3]




 Mutsuzluğun Peşinde



Charlie bir manada lanetli birisidir. Bunun sebebi, Chalie'nin bir rahatsızlığıdır. Bu rahatsızlık; eğer Charlie çok fazla mutlu olursa bayılmasına sebebiyet veren bir hastalıktır. Tabii ki fazla üzülme, fazla adranelin gibi şeyler bu duruma sebebiyet vermektedir. Charlie ise bunun çözümü olarak kızlarla hiç bir bağlantı kurmaz, bir kütüphanede çalışarak ani duygu değişimi yaşamamaya çalışır. Ancak bir gün kütüphaneye Franceska adında bir kız gelir ve bu kız Charlie için bir risktir. Bu yüzden de Charlie aslından hoşlandığı kız olan Franceska'dan uzaklaşır...

Mutsuzluğun Peşinde (2019) (Ode to Joy) Filmi Imdb'den 2,000 kişi tarafından oylandı ve 6,3 puan aldı. Bu film için editör puanı 6,0 olarak belirlendi. İyi Seyirler!

Teknik Detaylar

Kod :
General
Unique ID                                : 172110675771799671871587126233647964041 (0x817B4F77CCF8CAB0F6E919DEE4825F89)
Complete name                            : /root/Desktop/2/Ode.to.Joy.2019.1080p.WEB-DL.x264.TR.Filmbol.mkv
Format                                   : Matroska
Format version                           : Version 4 / Version 2
File size                                : 1.55 GiB
Duration                                 : 1h 37mn
Overall bit rate                         : 2 270 Kbps
Movie name                               : Ode to Joy (2019) - Filmbol.org
Encoded date                             : UTC 2020-03-22 13:23:30
Writing application                      : mkvmerge v8.8.0 ('Wind at my back') 64bit
Writing library                          : libebml v1.3.3 + libmatroska v1.4.4

Video
ID                                       : 1
Format                                   : AVC
Format/Info                              : Advanced Video Codec
Format profile                           : [email protected]
Format settings, CABAC                   : Yes
Format settings, ReFrames                : 2 frames
Codec ID                                 : V_MPEG4/ISO/AVC
Duration                                 : 1h 37mn
Bit rate                                 : 2 076 Kbps
Width                                    : 1 920 pixels
Height                                   : 790 pixels
Display aspect ratio                     : 2.40:1
Frame rate mode                          : Constant
Frame rate                               : 23.976 (23976/1000) fps
Color space                              : YUV
Chroma subsampling                       : 4:2:0
Bit depth                                : 8 bits
Scan type                                : Progressive
Bits/(Pixel*Frame)                       : 0.057
Stream size                              : 1.42 GiB (91%)
Title                                    : 1080P - Filmbol.org
Language                                 : English
Default                                  : Yes
Forced                                   : No

Audio
ID                                       : 2
Format                                   : AC-3
Format/Info                              : Audio Coding 3
Mode extension                           : CM (complete main)
Format settings, Endianness              : Big
Codec ID                                 : A_AC3
Duration                                 : 1h 37mn
Bit rate mode                            : Constant
Bit rate                                 : 192 Kbps
Channel(s)                               : 2 channels
Channel positions                        : Front: L R
Sampling rate                            : 48.0 KHz
Frame rate                               : 31.250 fps (1536 spf)
Compression mode                         : Lossy
Stream size                              : 134 MiB (8%)
Title                                    : Türkçe - Filmbol.org
Language                                 : Turkish
Default                                  : Yes
Forced                                   : No

Film Detayları


 Mutsuzluğun Peşinde

 Mutsuzluğun Peşinde

 Mutsuzluğun Peşinde


Film Fragmanı


Film İndir


Rar Şifresi: filmbol.org


Uptobox ile indir

1Fichier ile indir

1Fichier'den İndiremiyor musun? Tıklayın!








Şuan Online!
Rapor Et!
Şuan Online!
BroserBros Kurucu Admin
*******
Admin
13.02.2021 Yönetici Notu:

Kırık linkler kontrol edildi, kaldırıldı ve yenilendi. Tüm linkler tamamen çalışır durumda.


Hızlı Menü: