⤤ Premium'a Yükselt
Filmbol Forum Film İndir BRRip XviD v Hırsızlar Kralı (King of Thieves) Türkçe Dublaj BRRip XviD indir

Filmbol TV kullanıma açıldı. Bu adresten giriş yapabilirsin: Giriş





Hırsızlar Kralı (King of Thieves) Türkçe Dublaj BRRip XviD indir
BroserBros
Hırsızlar Kralı (King of Thieves) Türkçe Dublaj BRRip XviD indir
1
414
  • Derecelendirme: 0/5 - 0 oy
  • 1
  • 2
  • 3
  • 4
  • 5
Konuyu Okuyanlar:1 Ziyaretçi
Şuan Online!
Filmin Yayınlanma Tarihi: 2018 
WWW
Rapor Et!
Şuan Online!
BroserBros Kurucu Admin
*******
Admin



[süre]108 dakika[/süre]

[avimp3][/avimp3]




 Hırsızlar Kralı



Tecrübenin değeri bu filmde anlaşılabilir. Gerçek bir olaydan esinlenilen yapıtta, eskiden soyguncu olan arkadaşlar tekrar bir araya gelirler ve yanlarına aldıkları bir kaç genç ile İngilterenin en büyük soygununu yapmak için plan kurarlar....

Hırsızlar Kralı (2018) (King of Thieves) Filmi Imdb'den 11,000 kişi tarafından oylandı ve 5,5 puan aldı. Bu film için editör puanı 5,0 olarak belirlendi. İyi Seyirler!

Teknik Detaylar

Kod :
General
Complete name                            : /root/Desktop/3/Hırsızlar.Kralı.2018.HDRip.XViD.TR.Filmbol.avi
Format                                  : AVI
Format/Info                              : Audio Video Interleave
File size                                : 1.26 GiB
Duration                                : 1h 47mn
Overall bit rate                        : 1 682 Kbps

Video
ID                                      : 0
Format                                  : MPEG-4 Visual
Format profile                          : Advanced [email protected]
Format settings, BVOP                    : 2
Format settings, QPel                    : No
Format settings, GMC                    : No warppoints
Format settings, Matrix                  : Custom
Codec ID                                : XVID
Codec ID/Hint                            : XviD
Duration                                : 1h 47mn
Bit rate                                : 1 540 Kbps
Width                                    : 720 pixels
Height                                  : 304 pixels
Display aspect ratio                    : 2.35:1
Frame rate                              : 24.000 fps
Color space                              : YUV
Chroma subsampling                      : 4:2:0
Bit depth                                : 8 bits
Scan type                                : Progressive
Compression mode                        : Lossy
Bits/(Pixel*Frame)                      : 0.293
Stream size                              : 1.16 GiB (92%)
Writing library                          : XviD 73

Audio
ID                                      : 1
Format                                  : MPEG Audio
Format version                          : Version 1
Format profile                          : Layer 3
Mode                                    : Joint stereo
Codec ID                                : 55
Codec ID/Hint                            : MP3
Duration                                : 1h 47mn
Bit rate mode                            : Constant
Bit rate                                : 128 Kbps
Channel(s)                              : 2 channels
Sampling rate                            : 48.0 KHz
Compression mode                        : Lossy
Stream size                              : 98.5 MiB (8%)
Alignment                                : Aligned on interleaves
Interleave, duration                    : 24 ms (0.58 video frame)

Film Detayları


 Hırsızlar Kralı

 Hırsızlar Kralı

 Hırsızlar Kralı


Film Fragmanı


Film İndir


Rar Şifresi: filmbol.org



Uptobox ile indir

1Fichier ile indir

1Fichier'den İndiremiyor musun? Tıklayın!








Şuan Online!
Rapor Et!
Şuan Online!
BroserBros Kurucu Admin
*******
Admin
13.02.2021 Yönetici Notu:

Kırık linkler kontrol edildi, kaldırıldı ve yenilendi. Tüm linkler tamamen çalışır durumda.


Hızlı Menü: