⤤ Premium'a Yükselt
Filmbol Forum Film İndir 720P v Charlie'nin Melekleri (Charlie's Angels) Türkçe Dublaj BLURAY 720P indir

Filmbol TV kullanıma açıldı. Bu adresten giriş yapabilirsin: Giriş





Charlie'nin Melekleri (Charlie's Angels) Türkçe Dublaj BLURAY 720P indir
BroserBros
Charlie'nin Melekleri (Charlie's Angels) Türkçe Dublaj BLURAY 720P indir
3
662
  • Derecelendirme: 0/5 - 0 oy
  • 1
  • 2
  • 3
  • 4
  • 5
Konuyu Okuyanlar:3 Ziyaretçi
Şuan Online!
Filmin Yayınlanma Tarihi: 2019 
WWW
Rapor Et!
Şuan Online!
BroserBros Kurucu Admin
*******
Admin



[süre]118 dakika[/süre]





 Charlie'nin Melekleri



Charlie'nin melekleri, ki bu bunlar sözde melektir birbirinden yetenekli kadın ajanları konu alıyor. Aksiyon Komedi türündeki bu film serinin önceki filmlerini aratsada, izlenilebilir seviyede. Oyuncu kadrosu olarakta iyi bir film olan Charlie'nin melekleri, birçok dalda ödül kazanmıştır...

Charlie'nin Melekleri (2019) (Charlie's Angels) Filmi Imdb'den 35,000 kişi tarafından oylandı ve 4,5 puan aldı. Bu film için editör puanı 5,3 olarak belirlendi. İyi Seyirler!

Teknik Detaylar

Kod :
General
Unique ID                                : 57341493631076950884045058904102002554 (0x2B2391E9291BC470E7E59D26B407DF7A)
Complete name                            : /root/Desktop/3/Charlinin.Melekleri.2019.720p.BluRay.x264.TR.Filmbol.mkv
Format                                   : Matroska
Format version                           : Version 4 / Version 2
File size                                : 1.11 GiB
Duration                                 : 1h 57mn
Overall bit rate                         : 1 343 Kbps
Movie name                               : Charlienin Melekleri (2019) - Filmbol.org
Encoded date                             : UTC 2020-03-19 12:12:17
Writing application                      : mkvmerge v35.0.0 ('All The Love In The World') 64-bit
Writing library                          : libebml v1.3.9 + libmatroska v1.5.2

Video
ID                                       : 1
Format                                   : AVC
Format/Info                              : Advanced Video Codec
Format profile                           : [email protected]
Format settings, CABAC                   : Yes
Format settings, ReFrames                : 4 frames
Codec ID                                 : V_MPEG4/ISO/AVC
Duration                                 : 1h 57mn
Bit rate                                 : 1 150 Kbps
Width                                    : 1 280 pixels
Height                                   : 534 pixels
Display aspect ratio                     : 2.40:1
Original display aspect ratio            : 2.40:1
Frame rate mode                          : Constant
Frame rate                               : 23.976 (24000/1001) fps
Color space                              : YUV
Chroma subsampling                       : 4:2:0
Bit depth                                : 8 bits
Scan type                                : Progressive
Bits/(Pixel*Frame)                       : 0.070
Stream size                              : 969 MiB (86%)
Title                                    : 720P - Filmbol.org
Writing library                          : x264 core 159
Encoding settings                        : cabac=1 / ref=4 / deblock=1:-1:-1 / analyse=0x3:0x133 / me=umh / subme=9 / psy=1 / psy_rd=1.00:0.15 / mixed_ref=1 / me_range=24 / chroma_me=1 / trellis=2 / 8x8dct=1 / cqm=0 / deadzone=21,11 / fast_pskip=0 / chroma_qp_offset=-3 / threads=12 / lookahead_threads=1 / sliced_threads=0 / nr=0 / decimate=1 / interlaced=0 / bluray_compat=0 / constrained_intra=0 / bframes=3 / b_pyramid=2 / b_adapt=2 / b_bias=0 / direct=3 / weightb=1 / open_gop=0 / weightp=2 / keyint=250 / keyint_min=23 / scenecut=40 / intra_refresh=0 / rc_lookahead=60 / rc=2pass / mbtree=1 / bitrate=1150 / ratetol=1.0 / qcomp=0.60 / qpmin=0 / qpmax=69 / qpstep=4 / cplxblur=20.0 / qblur=0.5 / vbv_maxrate=31250 / vbv_bufsize=31250 / nal_hrd=none / filler=0 / ip_ratio=1.40 / aq=1:1.00
Default                                  : Yes
Forced                                   : No

Audio
ID                                       : 2
Format                                   : AC-3
Format/Info                              : Audio Coding 3
Mode extension                           : CM (complete main)
Format settings, Endianness              : Big
Codec ID                                 : A_AC3
Duration                                 : 1h 57mn
Bit rate mode                            : Constant
Bit rate                                 : 192 Kbps
Channel(s)                               : 2 channels
Channel positions                        : Front: L R
Sampling rate                            : 48.0 KHz
Frame rate                               : 31.250 fps (1536 spf)
Compression mode                         : Lossy
Stream size                              : 162 MiB (14%)
Title                                    : Türkçe - Filmbol.org
Language                                 : Turkish
Default                                  : Yes
Forced                                   : No

Film Detayları


 Charlie'nin Melekleri

 Charlie'nin Melekleri

 Charlie'nin Melekleri


Film Fragmanı


Film İndir


Rar Şifresi: filmbol.org


Uptobox ile indir

1Fichier ile indir

1Fichier'den İndiremiyor musun? Tıklayın!








Şuan Online!
Rapor Et!
Şuan Online!
BroserBros Kurucu Admin
*******
Admin
27.02.2021 Yönetici Notu:

Kırık linkler kontrol edildi, kaldırıldı ve yenilendi. Tüm linkler tamamen çalışır durumda.
Şuan Offine!
Rapor Et!
Şuan Offine!
yusufbulutfb Üye
*
Üye
  • Konular0
  • Mesajlar7
  • Rep puanı 0
teşekkürler
Şuan Offine!
Rapor Et!
Şuan Offine!
myzrail Üye
*
Üye
  • Konular0
  • Mesajlar387
  • Rep puanı 0
eline sağlık


Hızlı Menü: