⤤ Premium'a Yükselt
Filmbol Forum Film İndir BRRip XviD v Tavşan Jojo (Jojo Rabbit) Türkçe Dublaj BRRip XviD indir

Filmbol TV kullanıma açıldı. Bu adresten giriş yapabilirsin: Giriş





Tavşan Jojo (Jojo Rabbit) Türkçe Dublaj BRRip XviD indir
BroserBros
Tavşan Jojo (Jojo Rabbit) Türkçe Dublaj BRRip XviD indir
2
659
  • Derecelendirme: 0/5 - 0 oy
  • 1
  • 2
  • 3
  • 4
  • 5
Konuyu Okuyanlar:1 Ziyaretçi
Şuan Online!
Filmin Yayınlanma Tarihi: 2020 
WWW
Rapor Et!
Şuan Online!
BroserBros Kurucu Admin
*******
Admin



[süre]108 dakika[/süre]





 Tavşan Jojo



Jojo, hitleri daha önce hiç görmemiştir ancak aklında onun bir hayalini oluşturmuştur. Bu hayale göre hitler gayet efendi ve büyük bir liderdir ancak bir gün annesinin evlerinde bir yahudi kızı sakladığını öğrendiğinde hitleri görecektir ve onun gerçek kişiliğini. Jojo, bu durumdan sonra hayalindeki hitlerin çok farklı olduğunu anlar ve büyük bir hayal kırıklığına uğrayacaktır...

Tavşan Jojo (2019) (Jojo Rabbit) Filmi Imdb'den 170,000 kişi tarafından oylandı ve 8,0 puan aldı. Bu film için editör puanı 7,9 olarak belirlendi. İyi Seyirler!

Teknik Detaylar

Kod :
General
Complete name                            : /root/Desktop/4/Tavşan.Jojo.2019.BRRip.XviD.TR.Filmbol.avi
Format                                   : AVI
Format/Info                              : Audio Video Interleave
File size                                : 1.32 GiB
Duration                                 : 1h 48mn
Overall bit rate                         : 1 740 Kbps

Video
ID                                       : 0
Format                                   : MPEG-4 Visual
Format profile                           : [email protected]
Format settings, BVOP                    : No
Format settings, QPel                    : No
Format settings, GMC                     : No warppoints
Format settings, Matrix                  : Default (H.263)
Codec ID                                 : XVID
Codec ID/Hint                            : XviD
Duration                                 : 1h 48mn
Bit rate                                 : 1 599 Kbps
Width                                    : 720 pixels
Height                                   : 390 pixels
Display aspect ratio                     : 1.85:1
Frame rate                               : 23.976 fps
Color space                              : YUV
Chroma subsampling                       : 4:2:0
Bit depth                                : 8 bits
Scan type                                : Progressive
Compression mode                         : Lossy
Bits/(Pixel*Frame)                       : 0.238
Stream size                              : 1.21 GiB (92%)
Writing library                          : Lavc58.35.100

Audio
ID                                       : 1
Format                                   : MPEG Audio
Format version                           : Version 1
Format profile                           : Layer 3
Mode                                     : Joint stereo
Mode extension                           : MS Stereo
Codec ID                                 : 55
Codec ID/Hint                            : MP3
Duration                                 : 1h 48mn
Bit rate mode                            : Constant
Bit rate                                 : 128 Kbps
Channel(s)                               : 2 channels
Sampling rate                            : 48.0 KHz
Compression mode                         : Lossy
Stream size                              : 99.2 MiB (7%)
Alignment                                : Aligned on interleaves
Interleave, duration                     : 24 ms (0.58 video frame)

Film Detayları


 Tavşan Jojo

 Tavşan Jojo

 Tavşan Jojo


Film Fragmanı


Film İndir


Rar Şifresi: filmbol.org



Uptobox ile indir

1Fichier ile indir

1Fichier'den İndiremiyor musun? Tıklayın!








Şuan Offine!
Rapor Et!
Şuan Offine!
farukyigit Üye
*
Üye
  • Konular0
  • Mesajlar1
  • Rep puanı 0
teşekürler eline sağlık
Şuan Online!
Rapor Et!
Şuan Online!
BroserBros Kurucu Admin
*******
Admin
27.02.2021 Yönetici Notu:

Kırık linkler kontrol edildi, kaldırıldı ve yenilendi. Tüm linkler tamamen çalışır durumda.


Hızlı Menü: