Filmbol Forum Film İndir BRRip XviD v Godzilla 1 (Godzilla) - 2014 - TR - BRRip XviD | tt0831387
Mega linklerinin şikayet edilmemesi için global erişime kapatıp sadece yorum yapanlara açıyoruz. Bu linkleri gizleme işlemini mecburen yapıyoruz ve yorum yapmanızın siteye değil size faydası vardır. Teşekürler yazmayı çok görüp, Random/Spam mesajlar atarak Mega linklerini açmaya çalışan kullanıcılara önce süresiz ban, devam ederse IP ban atacağız.
Filmbol'da moderatör olmak ister misiniz? Bizimle iletişime geçmek için tıklayın!
Godzilla 1 (Godzilla) - 2014 - TR - BRRip XviD | tt0831387
BroserBros
Godzilla 1 (Godzilla) - 2014 - TR - BRRip XviD | tt0831387
4
1463
  • Derecelendirme: 0/5 - 0 oy
  • 1
  • 2
  • 3
  • 4
  • 5
Konuyu Okuyanlar:1 Ziyaretçi
Şuan Online!
Filmin Yayınlanma Tarihi: 2014 
WWW
Şuan Online!
BroserBros Kurucu Admin
*******
Admin



 Godzilla 1



Godzilla ismini hiç duydunuz mu? Büyük ihtimalle duydunuz. Godzilla, Japonya’da bir nükleer atlama sonucu, nükleer enerji ile beslenerek tekrar doğdu. Dünya, şimdi bu canlı ile kuşatılmış durumda.

Godzilla 1 (2014) (Godzilla) | tt0831387 Filmi Imdb'den 390,000 kişi tarafından oylandı ve 6,4 puan aldı. Bu film için editör puanı %80 olarak belirlendi. İyi Seyirler!

Teknik Detaylar

Kod :
General
Unique ID                                : 261200912038307196872639477653617154154 (0xC481773EA4387296B261E8A0D3C6986A)
Complete name                            : /home/BroserBros/Desktop/3/Godzilla.2014.BRRip.XViD.TR.Filmbol.avi
Format                                   : Matroska
Format version                           : Version 4
File size                                : 704 MiB
Duration                                 : 2 h 3 min
Overall bit rate                         : 799 kb/s
Movie name                               : Godzilla - 2014 | Filmbol.org
Encoded date                             : UTC 2021-04-15 16:03:39
Writing application                      : mkvmerge v53.0.0 ('Fool's Gold') 64-bit
Writing library                          : libebml v1.4.1 + libmatroska v1.6.2
FileExtension_Invalid                    : mkv mk3d mka mks

Video
ID                                       : 1
Format                                   : MPEG-4 Visual
Format profile                           : Advanced [email protected]
Format settings                          : BVOP1 / Custom Matrix
Format settings, BVOP                    : 1
Format settings, QPel                    : No
Format settings, GMC                     : No warppoints
Format settings, Matrix                  : Custom
Codec ID                                 : V_MS/VFW/FOURCC / XVID
Codec ID/Hint                            : XviD
Duration                                 : 2 h 3 min
Bit rate                                 : 670 kb/s
Width                                    : 656 pixels
Height                                   : 272 pixels
Display aspect ratio                     : 2.40:1
Frame rate mode                          : Constant
Frame rate                               : 23.976 (23976/1000) FPS
Color space                              : YUV
Chroma subsampling                       : 4:2:0
Bit depth                                : 8 bits
Scan type                                : Progressive
Compression mode                         : Lossy
Bits/(Pixel*Frame)                       : 0.157
Stream size                              : 590 MiB (84%)
Title                                    : Godzilla - 2014 | Filmbol.org
Writing library                          : XviD 1.2.1 (UTC 2008-12-04)
Default                                  : Yes
Forced                                   : No

Audio
ID                                       : 2
Format                                   : MPEG Audio
Format version                           : Version 1
Format profile                           : Layer 3
Format settings                          : Joint stereo / MS Stereo
Codec ID                                 : A_MPEG/L3
Codec ID/Hint                            : MP3
Duration                                 : 2 h 3 min
Bit rate mode                            : Constant
Bit rate                                 : 128 kb/s
Channel(s)                               : 2 channels
Sampling rate                            : 48.0 kHz
Frame rate                               : 41.667 FPS (1152 SPF)
Compression mode                         : Lossy
Stream size                              : 113 MiB (16%)
Title                                    : Godzilla - 2014 | Filmbol.org
Writing library                          : LAME3.99r
Encoding settings                        : -m j -V 4 -q 2 -lowpass 17 -b 128
Default                                  : Yes
Forced                                   : No

Film Detayları


 Godzilla 1

 Godzilla 1

 Godzilla 1


Film Fragmanı


Film Detayları


Uptobox ile indir

1Fichier ile indir

1Fichier'den İndiremiyor musun? Tıklayın!


Mega linki şuan da gizli. Kullanıma açmak için konuya yorum yapın ve ardından sayfayı yenileyin.

Mega


Bunun için üzgünüz ancak, bu linke sadece premium üyeler erişebilir.

Filmbol Cloud





Şuan Online!
Şuan Online!
BroserBros Kurucu Admin
*******
Admin

12.12.2019 Güncelleme Notu:

Linkler yenilendi. Kırık linkler kaldırıldı ve Genel Konu Düzenlemesi Yapıldı
Şuan Online!
Şuan Online!
İgor Yeni Üye
*
Üye

  • Konular0
  • Mesajlar3
  • Rep puanı 0
Teşekkürler
Şuan Online!
Şuan Online!
Furkan61 Süper Üye
***
Super Üye

  • Konular0
  • Mesajlar227
  • Rep puanı 4
güzel
Şuan Online!
Şuan Online!
BroserBros Kurucu Admin
*******
Admin

17.04.2021 Yönetici Notu:

Kırık linkler kontrol edildi, kaldırıldı ve yenilendi. Tüm linkler tamamen çalışır durumda.


Hızlı Menü: