⤤ Premium'a Yükselt

Merhaba, Ziyaretçi. Mega linklerinin bir kısmı deaktif halde ve yenileme çalışmalarına başladık. Bu süre içinde ikinci duyuruya kadar mega linklerini raporlamayın!! x

Filmbol Forum Film İndir 1080P v Sevginin Gücü (Léon: The Professional) - 1994 - TR+ORG - 1080P | tt0110413

Filmbol TV kullanıma açıldı. Bu adresten giriş yapabilirsin: Giriş





Sevginin Gücü (Léon: The Professional) - 1994 - TR+ORG - 1080P | tt0110413
BroserBros
Sevginin Gücü (Léon: The Professional) - 1994 - TR+ORG - 1080P | tt0110413
25
3147
  • Derecelendirme: 0/5 - 0 oy
  • 1
  • 2
  • 3
  • 4
  • 5
Konuyu Okuyanlar:3 Ziyaretçi
Şuan Online!
Filmin Yayınlanma Tarihi: 1994 
WWW
Rapor Et!
Şuan Online!
BroserBros Kurucu Admin
*******
Admin



 Sevginin Gücü



Mathilda'nın hayatı pek iç açıcı değildir, annesi babası ile aralasında hiç bir bağ kalmamıştır. Onu hayatta ve ailesiyle birlikte tutan tek şey küçük kardeşidir. Ancak bir gün, Mathildanın ailesi katledilir ve herşeyi yok olur. Kendi başına yaşamaya başlayan Mathilda bir market saldırısından bir şekilde hayatta kalır ve Leon'un evine gider. Burada inanılmaz bir bağ kurulur...

Sevginin Gücü (1994) (Léon: The Professional) | tt0110413 Filmi Imdb'den 1,100,000 kişi tarafından oylandı ve 8,5 puan aldı. Bu film için editör puanı %93 olarak belirlendi. İyi Seyirler!

Teknik Detaylar

Kod :
General
Unique ID                                : 321861745444580549553197557757677165510 (0xF224513DE0FACDC4433AE790491C5BC6)
Complete name                            : /home/BroserBros/Desktop/6/Sevginin.Gücü.Extended.1994.1080p.BluRay.x264.TR.ENG.Filmbol.mkv
Format                                   : Matroska
Format version                           : Version 4
File size                                : 2.11 GiB
Duration                                 : 2 h 12 min
Overall bit rate                         : 2 275 kb/s
Movie name                               : Sevginin Gücü - Leon The Professional - 1994 | Filmbol.org
Encoded date                             : UTC 2021-02-25 08:58:57
Writing application                      : mkvmerge v53.0.0 ('Fool's Gold') 64-bit
Writing library                          : libebml v1.4.1 + libmatroska v1.6.2

Video
ID                                       : 1
Format                                   : AVC
Format/Info                              : Advanced Video Codec
Format profile                           : [email protected]
Format settings                          : CABAC / 5 Ref Frames
Format settings, CABAC                   : Yes
Format settings, Reference frames        : 5 frames
Codec ID                                 : V_MPEG4/ISO/AVC
Duration                                 : 2 h 12 min
Bit rate                                 : 1 765 kb/s
Width                                    : 1 920 pixels
Height                                   : 812 pixels
Display aspect ratio                     : 2.35:1
Frame rate mode                          : Constant
Frame rate                               : 24.000 FPS
Color space                              : YUV
Chroma subsampling                       : 4:2:0
Bit depth                                : 8 bits
Scan type                                : Progressive
Bits/(Pixel*Frame)                       : 0.047
Stream size                              : 1.63 GiB (77%)
Title                                    : 1080P - Filmbol.org
Writing library                          : x264 core 120 r2164 da19765
Encoding settings                        : cabac=1 / ref=5 / deblock=1:-2:-1 / analyse=0x3:0x113 / me=umh / subme=5 / psy=1 / psy_rd=1.00:0.00 / mixed_ref=1 / me_range=16 / chroma_me=1 / trellis=1 / 8x8dct=1 / cqm=0 / deadzone=21,11 / fast_pskip=1 / chroma_qp_offset=0 / threads=12 / sliced_threads=0 / nr=0 / decimate=1 / interlaced=0 / bluray_compat=0 / constrained_intra=0 / bframes=16 / b_pyramid=2 / b_adapt=1 / b_bias=0 / direct=3 / weightb=1 / open_gop=0 / weightp=2 / keyint=240 / keyint_min=24 / scenecut=40 / intra_refresh=0 / rc=2pass / mbtree=0 / bitrate=1765 / ratetol=1.0 / qcomp=0.60 / qpmin=10 / qpmax=51 / qpstep=4 / cplxblur=20.0 / qblur=0.5 / ip_ratio=1.40 / pb_ratio=1.30 / aq=2:1.00
Default                                  : Yes
Forced                                   : No

Audio #1
ID                                       : 2
Format                                   : AC-3
Format/Info                              : Audio Coding 3
Commercial name                          : Dolby Digital
Codec ID                                 : A_AC3
Duration                                 : 2 h 12 min
Bit rate mode                            : Constant
Bit rate                                 : 448 kb/s
Channel(s)                               : 6 channels
Channel layout                           : L R C LFE Ls Rs
Sampling rate                            : 48.0 kHz
Frame rate                               : 31.250 FPS (1536 SPF)
Compression mode                         : Lossy
Delay relative to video                  : 875 ms
Stream size                              : 425 MiB (20%)
Title                                    : Türkçe - Filmbol.org
Language                                 : Turkish
Service kind                             : Complete Main
Default                                  : Yes
Forced                                   : No

Audio #2
ID                                       : 3
Format                                   : AAC LC
Format/Info                              : Advanced Audio Codec Low Complexity
Codec ID                                 : A_AAC-2
Duration                                 : 2 h 12 min
Bit rate                                 : 64.0 kb/s
Channel(s)                               : 2 channels
Channel layout                           : L R
Sampling rate                            : 48.0 kHz
Frame rate                               : 46.875 FPS (1024 SPF)
Compression mode                         : Lossy
Delay relative to video                  : -125 ms
Stream size                              : 60.8 MiB (3%)
Title                                    : İngilizce - Filmbol.org
Language                                 : English
Default                                  : No
Forced                                   : No

Text
ID                                       : 4
Format                                   : UTF-8
Codec ID                                 : S_TEXT/UTF8
Codec ID/Info                            : UTF-8 Plain Text
Duration                                 : 2 h 7 min
Bit rate                                 : 37 b/s
Count of elements                        : 919
Stream size                              : 34.9 KiB (0%)
Title                                    : Türkçe Altyazı
Default                                  : Yes
Forced                                   : No

Film Detayları


 Sevginin Gücü

 Sevginin Gücü

 Sevginin Gücü


Film Fragmanı


Film İndir


Rar Şifresi: filmbol.org


Uptobox ile indir

1Fichier ile indir

1Fichier'den İndiremiyor musun? Tıklayın!












Şuan Offine!
Rapor Et!
Şuan Offine!
caner Süper Üye
***
Super Üye
  • Konular0
  • Mesajlar51
  • Rep puanı 0
teşekkürler
Şuan Online!
Filmin Yayınlanma Tarihi: 1994 
Rapor Et!
Şuan Online!
BroserBros Kurucu Admin
*******
Admin
27.02.2021 Yönetici Notu:
Kırık linkler kontrol edildi, kaldırıldı ve yenilendi. Tüm linkler tamamen çalışır durumda.
Şuan Offine!
Rapor Et!
Şuan Offine!
ahmettepe Üye
*
Üye
  • Konular0
  • Mesajlar65
  • Rep puanı 1
ellerinize sağlık
Şuan Offine!
Rapor Et!
Şuan Offine!
gracie05 Üye
*
Üye
  • Konular0
  • Mesajlar1
  • Rep puanı 0
Teşekkürler.
Şuan Offine!
Rapor Et!
Şuan Offine!
vazquex Üye
*
Üye
  • Konular0
  • Mesajlar2
  • Rep puanı 0
Teşekkürler.

teşekkürler
Şuan Offine!
Rapor Et!
Şuan Offine!
pars67 Üye
*
Üye
  • Konular0
  • Mesajlar66
  • Rep puanı 0
Teşekkürler.
Şuan Offine!
Rapor Et!
Şuan Offine!
Perspektif Üye
*
Üye
  • Konular0
  • Mesajlar18
  • Rep puanı 0
Teşekkürler.
Şuan Offine!
Rapor Et!
Şuan Offine!
zombozo Üye
*
Üye
  • Konular0
  • Mesajlar3
  • Rep puanı 0
Teşekkürler.
Şuan Offine!
Rapor Et!
Şuan Offine!
can vardar Üye
*
Üye
  • Konular0
  • Mesajlar7
  • Rep puanı 0
Teşekkürler.


Hızlı Menü: