⤤ Premium'a Yükselt

Merhaba, Ziyaretçi. Mega linklerinin bir kısmı deaktif halde ve yenileme çalışmalarına başladık. Bu süre içinde ikinci duyuruya kadar mega linklerini raporlamayın!! x

Filmbol Forum Film İndir 1080P v Melekler ve Şeytanlar (Angels & Demons) - 2009 - TR+ORG - 1080P | tt0808151

Filmbol TV kullanıma açıldı. Bu adresten giriş yapabilirsin: Giriş





Melekler ve Şeytanlar (Angels & Demons) - 2009 - TR+ORG - 1080P | tt0808151
BroserBros
Melekler ve Şeytanlar (Angels & Demons) - 2009 - TR+ORG - 1080P | tt0808151
11
1023
  • Derecelendirme: 0/5 - 0 oy
  • 1
  • 2
  • 3
  • 4
  • 5
Konuyu Okuyanlar:3 Ziyaretçi
Şuan Online!
Filmin Yayınlanma Tarihi: 2009 
WWW
Rapor Et!
Şuan Online!
BroserBros Kurucu Admin
*******
Admin



 Melekler ve Şeytanlar



İlluminati ismini bir yerlerden duymuşsunuzdur, kaynağını merak ediyor musunuz? Yüksek ihtimalle bu filmdir! Robert Langdon, Illuminatini büyük planını açığa çıkartmaya çalışıyor.. İlluminatinin ana hedefi vatikan başta olmak üzere tüm dinleri yıkma planını ilerletmektedir ancak Teoloji uzmanı Robert, bu konuda uyanır ve yeterince bilgisi vardır...

Melekler ve Şeytanlar (2009) (Angels & Demons) | tt0808151 Filmi Imdb'den 275,000 kişi tarafından oylandı ve 6,7 puan aldı. Bu film için editör puanı %81 olarak belirlendi. İyi Seyirler!

Teknik Detaylar

Kod :
General
Unique ID                                : 130699573475576044171038907733572616717 (0x6253D27D80CA70C4558C09CFB1E8820D)
Complete name                            : /home/BroserBros/Desktop/4/Melekler.Ve.Şeytanlar.2009.1080p.BluRay.x264.TR.ENG.Filmbol.mkv
Format                                   : Matroska
Format version                           : Version 4
File size                                : 2.42 GiB
Duration                                 : 2 h 18 min
Overall bit rate                         : 2 501 kb/s
Movie name                               : Melekler ve Şeytanlar - Angels and Demons - 2009 | Filmbol.org
Encoded date                             : UTC 2021-02-28 14:25:36
Writing application                      : mkvmerge v53.0.0 ('Fool's Gold') 64-bit
Writing library                          : libebml v1.4.1 + libmatroska v1.6.2

Video
ID                                       : 1
Format                                   : AVC
Format/Info                              : Advanced Video Codec
Format profile                           : [email protected]
Format settings                          : CABAC / 4 Ref Frames
Format settings, CABAC                   : Yes
Format settings, Reference frames        : 4 frames
Codec ID                                 : V_MPEG4/ISO/AVC
Duration                                 : 2 h 18 min
Bit rate                                 : 1 766 kb/s
Width                                    : 1 920 pixels
Height                                   : 800 pixels
Display aspect ratio                     : 2.40:1
Frame rate mode                          : Constant
Frame rate                               : 23.976 (24000/1001) FPS
Color space                              : YUV
Chroma subsampling                       : 4:2:0
Bit depth                                : 8 bits
Scan type                                : Progressive
Bits/(Pixel*Frame)                       : 0.048
Stream size                              : 1.71 GiB (71%)
Title                                    : 1080P - Filmbol.org
Writing library                          : x264 core 125 r2200 999b753
Encoding settings                        : cabac=1 / ref=3 / deblock=1:0:0 / analyse=0x3:0x113 / me=hex / subme=7 / psy=1 / psy_rd=1.00:0.15 / mixed_ref=1 / me_range=16 / chroma_me=1 / trellis=1 / 8x8dct=1 / cqm=0 / deadzone=21,11 / fast_pskip=1 / chroma_qp_offset=-3 / threads=6 / lookahead_threads=1 / sliced_threads=0 / nr=0 / decimate=1 / interlaced=0 / bluray_compat=0 / constrained_intra=0 / bframes=3 / b_pyramid=2 / b_adapt=1 / b_bias=0 / direct=1 / weightb=1 / open_gop=0 / weightp=2 / keyint=240 / keyint_min=23 / scenecut=40 / intra_refresh=0 / rc_lookahead=40 / rc=2pass / mbtree=1 / bitrate=1766 / ratetol=1.0 / qcomp=0.60 / qpmin=10 / qpmax=51 / qpstep=4 / cplxblur=20.0 / qblur=0.5 / ip_ratio=1.40 / aq=1:1.00
Default                                  : Yes
Forced                                   : No

Audio #1
ID                                       : 2
Format                                   : AC-3
Format/Info                              : Audio Coding 3
Commercial name                          : Dolby Digital
Codec ID                                 : A_AC3
Duration                                 : 2 h 18 min
Bit rate mode                            : Constant
Bit rate                                 : 640 kb/s
Channel(s)                               : 6 channels
Channel layout                           : L R C LFE Ls Rs
Sampling rate                            : 48.0 kHz
Frame rate                               : 31.250 FPS (1536 SPF)
Compression mode                         : Lossy
Delay relative to video                  : -83 ms
Stream size                              : 635 MiB (26%)
Title                                    : Türkçe - Filmbol.org
Language                                 : Turkish
Service kind                             : Complete Main
Default                                  : Yes
Forced                                   : No

Audio #2
ID                                       : 3
Format                                   : AAC LC
Format/Info                              : Advanced Audio Codec Low Complexity
Codec ID                                 : A_AAC-2
Duration                                 : 2 h 18 min
Bit rate                                 : 92.0 kb/s
Channel(s)                               : 2 channels
Channel layout                           : L R
Sampling rate                            : 48.0 kHz
Frame rate                               : 46.875 FPS (1024 SPF)
Compression mode                         : Lossy
Delay relative to video                  : -83 ms
Stream size                              : 91.2 MiB (4%)
Title                                    : Orjinal Dil - Filmbol.org
Language                                 : English
Default                                  : No
Forced                                   : No

Text #1
ID                                       : 4
Format                                   : UTF-8
Codec ID                                 : S_TEXT/UTF8
Codec ID/Info                            : UTF-8 Plain Text
Duration                                 : 2 h 7 min
Bit rate                                 : 56 b/s
Count of elements                        : 1339
Stream size                              : 52.8 KiB (0%)
Title                                    : Türkçe Altyazı - Filmbol.org
Language                                 : Turkish
Default                                  : Yes
Forced                                   : No

Text #2
ID                                       : 5
Format                                   : UTF-8
Codec ID                                 : S_TEXT/UTF8
Codec ID/Info                            : UTF-8 Plain Text
Duration                                 : 2 h 15 min
Bit rate                                 : 55 b/s
Count of elements                        : 1385
Stream size                              : 54.7 KiB (0%)
Title                                    : Türkçe Altyazı Alternatif - Filmbol.org
Language                                 : Turkish
Default                                  : No
Forced                                   : No

Film Detayları


 Melekler ve Şeytanlar

 Melekler ve Şeytanlar

 Melekler ve Şeytanlar


Film Fragmanı


Film İndir


Rar Şifresi: filmbol.org


Uptobox ile indir

1Fichier ile indir

1Fichier'den İndiremiyor musun? Tıklayın!












Şuan Offine!
Rapor Et!
Şuan Offine!
emre_3434 Süper Üye
***
Super Üye
  • Konular5
  • Mesajlar47
  • Rep puanı 5
Paylaşım için teşekkürler, emeğinize sağlık.
Şuan Online!
Rapor Et!
Şuan Online!
BroserBros Kurucu Admin
*******
Admin
03.03.2021 Yönetici Notu:

Kırık linkler kontrol edildi, kaldırıldı ve yenilendi. Tüm linkler tamamen çalışır durumda.
Şuan Offine!
Rapor Et!
Şuan Offine!
Ugur_1988 Premium Üye
****
  • Konular12
  • Mesajlar96
  • Rep puanı 26
Teşekkürler
Şuan Offine!
Rapor Et!
Şuan Offine!
efemyay Üye
*
Üye
  • Konular0
  • Mesajlar1
  • Rep puanı 0
Paylaşım için teşekkürler, emeğinize sağlık.
Şuan Offine!
Rapor Et!
Şuan Offine!
ahmettepe Üye
*
Üye
  • Konular0
  • Mesajlar65
  • Rep puanı 1
ellerinize sağlık
Şuan Offine!
Rapor Et!
Şuan Offine!
kartacan Üye
*
Üye
  • Konular0
  • Mesajlar35
  • Rep puanı 0
davinci code benzeri film teşekkürler
Şuan Online!
Rapor Et!
Şuan Online!
rasgun Üye
*
Üye
  • Konular0
  • Mesajlar35
  • Rep puanı 0
Teşekkürler.
Şuan Online!
Rapor Et!
Şuan Online!
djelci54 Üye
*
Üye
  • Konular0
  • Mesajlar144
  • Rep puanı 0
Teşekkürler.
Şuan Online!
Rapor Et!
Şuan Online!
yasinsavci8 Üye
*
Üye
  • Konular0
  • Mesajlar75
  • Rep puanı 0
Teşekkürler.


Hızlı Menü: