⤤ Premium'a Yükselt
Filmbol Forum Film İndir 720P v Piyanist (The Pianist) - 2002 - TR+ORG - 720P | tt0253474

Filmbol TV kullanıma açıldı. Bu adresten giriş yapabilirsin: Giriş





Piyanist (The Pianist) - 2002 - TR+ORG - 720P | tt0253474
BroserBros
Piyanist (The Pianist) - 2002 - TR+ORG - 720P | tt0253474
13
2645
  • Derecelendirme: 0/5 - 0 oy
  • 1
  • 2
  • 3
  • 4
  • 5
Konuyu Okuyanlar:4 Ziyaretçi
Şuan Online!
Filmin Yayınlanma Tarihi: 2002 
WWW
Rapor Et!
Şuan Online!
BroserBros Kurucu Admin
*******
Admin



 Piyanist



Nazi dünyayı kasıp kavurmuştur. Bu durum polonyaya kadar uzanmıştır. Polonyada ise bir piyanist vardır ve onun amansız mücadelesi merçek altına alınır. Yaşam imkansız hale gelmiştir ve savaş bu sanatçının ailesini, yakınlarının tamamını yok etmiştir. Çare bulamayan bu adam bir harabeye sığınmıştır ve hayatını böyle devam ettirmeye çalışmaktadır, fakat bir yardım eli uzatılmazsa bu şekilde ne kadar dayanabilir?…

Piyanist (2002) (The Pianist) | tt0253474 Filmi Imdb'den 750,000 kişi tarafından oylandı ve 8,5 puan aldı. Bu film için editör puanı %88 olarak belirlendi. İyi Seyirler!

Teknik Detaylar

Kod :
General
Unique ID                                : 258336448508256952763888537851797331830 (0xC259CA49F2E9ADBEDC3D056D1BEA5F76)
Complete name                            : /home/BroserBros/Desktop/6/Piyanist.2002.720p.BluRay.x264.TR.ENG.Filmbol.mkv
Format                                   : Matroska
Format version                           : Version 4
File size                                : 1.34 GiB
Duration                                 : 2 h 28 min
Overall bit rate                         : 1 292 kb/s
Movie name                               : Piyanist - The Pianist - 2002 | Filmbol.org
Encoded date                             : UTC 2021-03-01 13:36:59
Writing application                      : mkvmerge v53.0.0 ('Fool's Gold') 64-bit
Writing library                          : libebml v1.4.1 + libmatroska v1.6.2

Video
ID                                       : 1
Format                                   : AVC
Format/Info                              : Advanced Video Codec
Format profile                           : [email protected]
Format settings                          : CABAC / 8 Ref Frames
Format settings, CABAC                   : Yes
Format settings, Reference frames        : 8 frames
Codec ID                                 : V_MPEG4/ISO/AVC
Duration                                 : 2 h 28 min
Bit rate                                 : 806 kb/s
Width                                    : 1 600 pixels
Height                                   : 864 pixels
Display aspect ratio                     : 1.85:1
Frame rate mode                          : Constant
Frame rate                               : 23.976 FPS
Color space                              : YUV
Chroma subsampling                       : 4:2:0
Bit depth                                : 8 bits
Scan type                                : Progressive
Bits/(Pixel*Frame)                       : 0.024
Stream size                              : 858 MiB (62%)
Title                                    : 720P - Filmbol.org
Writing library                          : x264 core 98 r1649 20cbe10
Encoding settings                        : cabac=1 / ref=8 / deblock=1:-2:-2 / analyse=0x3:0x133 / me=umh / subme=9 / psy=1 / psy_rd=1.00:0.00 / mixed_ref=1 / me_range=24 / chroma_me=1 / trellis=2 / 8x8dct=1 / cqm=0 / deadzone=21,11 / fast_pskip=1 / chroma_qp_offset=-2 / threads=16 / sliced_threads=0 / nr=0 / decimate=1 / interlaced=0 / constrained_intra=0 / bframes=3 / b_pyramid=2 / b_adapt=2 / b_bias=0 / direct=3 / weightb=1 / weightp=0 / keyint=250 / keyint_min=25 / scenecut=40 / intra_refresh=0 / rc_lookahead=60 / rc=2pass / mbtree=1 / bitrate=806 / ratetol=1.0 / qcomp=0.60 / qpmin=10 / qpmax=51 / qpstep=4 / cplxblur=20.0 / qblur=0.5 / ip_ratio=1.40 / aq=1:1.00
Language                                 : English
Default                                  : Yes
Forced                                   : No

Audio #1
ID                                       : 2
Format                                   : AC-3
Format/Info                              : Audio Coding 3
Commercial name                          : Dolby Digital
Codec ID                                 : A_AC3
Duration                                 : 2 h 28 min
Bit rate mode                            : Constant
Bit rate                                 : 448 kb/s
Channel(s)                               : 6 channels
Channel layout                           : L R C LFE Ls Rs
Sampling rate                            : 48.0 kHz
Frame rate                               : 31.250 FPS (1536 SPF)
Compression mode                         : Lossy
Delay relative to video                  : 16 ms
Stream size                              : 477 MiB (35%)
Title                                    : Türkçe - Filmbol.org
Language                                 : Turkish
Service kind                             : Complete Main
Default                                  : No
Forced                                   : No

Audio #2
ID                                       : 4
Format                                   : AAC LC SBR
Format/Info                              : Advanced Audio Codec Low Complexity with Spectral Band Replication
Commercial name                          : HE-AAC
Format settings                          : Explicit
Codec ID                                 : A_AAC-2
Duration                                 : 2 h 28 min
Bit rate                                 : 36.0 kb/s
Channel(s)                               : 2 channels
Channel layout                           : L R
Sampling rate                            : 48.0 kHz
Frame rate                               : 23.438 FPS (2048 SPF)
Compression mode                         : Lossy
Stream size                              : 38.3 MiB (3%)
Title                                    : Orjinal - Filmbol.org
Language                                 : English
Default                                  : Yes
Forced                                   : No

Text #1
ID                                       : 3
Format                                   : UTF-8
Codec ID                                 : S_TEXT/UTF8
Codec ID/Info                            : UTF-8 Plain Text
Duration                                 : 2 h 22 min
Bit rate                                 : 33 b/s
Count of elements                        : 796
Stream size                              : 35.0 KiB (0%)
Title                                    : Türkçe - Filmbol.org
Language                                 : Turkish
Default                                  : Yes
Forced                                   : No

Text #2
ID                                       : 5
Format                                   : UTF-8
Codec ID                                 : S_TEXT/UTF8
Codec ID/Info                            : UTF-8 Plain Text
Duration                                 : 2 h 20 min
Bit rate                                 : 31 b/s
Count of elements                        : 895
Stream size                              : 32.6 KiB (0%)
Title                                    : Orjinal - Filmbol.org
Language                                 : English
Default                                  : No
Forced                                   : No

Film Detayları


 Piyanist

 Piyanist

 Piyanist


Film Fragmanı


Film İndir


Rar Şifresi: filmbol.org


Uptobox ile indir

1Fichier ile indir

1Fichier'den İndiremiyor musun? Tıklayın!












Şuan Offine!
Rapor Et!
Şuan Offine!
isayhan Süper Üye
***
Super Üye
  • Konular0
  • Mesajlar39
  • Rep puanı 0
teşekkürler
Şuan Online!
Rapor Et!
Şuan Online!
BroserBros Kurucu Admin
*******
Admin
03.03.2021 Yönetici Notu:

Kırık linkler kontrol edildi, kaldırıldı ve yenilendi. Tüm linkler tamamen çalışır durumda.
Şuan Offine!
Rapor Et!
Şuan Offine!
terlikliadam Üye
*
Üye
  • Konular0
  • Mesajlar1
  • Rep puanı 0
teşekkürler !!
Şuan Online!
Rapor Et!
Şuan Online!
TheSteeL Chief Executive Officer
******
CEO
(22-05-2021, Saat: 01:17)terlikliadam Adlı Kullanıcıdan Alıntı: teşekkürler !!
İyi Seyirler
Şuan Offine!
Rapor Et!
Şuan Offine!
eemirdikmen Üye
*
Üye
  • Konular0
  • Mesajlar2
  • Rep puanı 0
Teşekkürler.
Şuan Offine!
Rapor Et!
Şuan Offine!
myzrail Üye
*
Üye
  • Konular0
  • Mesajlar387
  • Rep puanı 0
eline saglık
Şuan Offine!
Rapor Et!
Şuan Offine!
uykusuzwhovian Üye
*
Üye
  • Konular0
  • Mesajlar6
  • Rep puanı 0
Teşekkürler.

çok teşekkürler 🐱
Şuan Offine!
Rapor Et!
Şuan Offine!
alper1234 Üye
*
Üye
  • Konular0
  • Mesajlar6
  • Rep puanı 0
Teşekkürler.
Şuan Offine!
Rapor Et!
Şuan Offine!
ed4wert4 Üye
*
Üye
  • Konular0
  • Mesajlar42
  • Rep puanı 0
Teşekkürler.


Hızlı Menü: