⤤ Premium'a Yükselt
Filmbol Forum Film İndir 1080P v Akıl Oyunları (A Beautiful Mind) - 2001 - TR+ORG - 1080P | tt0268978

Filmbol TV kullanıma açıldı. Bu adresten giriş yapabilirsin: Giriş





Akıl Oyunları (A Beautiful Mind) - 2001 - TR+ORG - 1080P | tt0268978
BroserBros
Akıl Oyunları (A Beautiful Mind) - 2001 - TR+ORG - 1080P | tt0268978
9
1547
  • Derecelendirme: 0/5 - 0 oy
  • 1
  • 2
  • 3
  • 4
  • 5
Konuyu Okuyanlar:2 Ziyaretçi
Şuan Online!
Filmin Yayınlanma Tarihi: 2002 
WWW
Rapor Et!
Şuan Online!
BroserBros Kurucu Admin
*******
Admin



 Akıl Oyunları



Ünlü matematikçi John Dash’ı konu alan Akıl Oyunları filmi John Dash’ın hayatını anlatıyor. John ünlü bir ücretli okul olan Princeton Üniversitesini tam burslu olarak kazanıyor ve asosyal yaşantısı ile çevresindekileri dikkatini çekerek ezikleniyor. Dahi John, önemli bir matematik teorisini tam da gerçekleştirmek üzere iken şizofren oluyor ve bu o kadar ilerliyor ki artık gerçek yaşam ile beyninde kurduğu yaşam ayırt edilemez hale geliyor…

Akıl Oyunları (2001) (A Beautiful Mind) | tt0268978 Filmi Imdb'den 850,000 kişi tarafından oylandı ve 8,2 puan aldı. Bu film için editör puanı %97 olarak belirlendi. İyi Seyirler!

Teknik Detaylar

Kod :
General
Unique ID                                : 211962486995073939230178319602947678867 (0x9F767D75D2406C62AA60CBE207E76293)
Complete name                            : /home/BroserBros/Desktop/8/Akıl.Oyunları.2001.1080p.BluRay.x264.TR.ENG.Filmbol.mkv
Format                                   : Matroska
Format version                           : Version 4
File size                                : 2.94 GiB
Duration                                 : 2 h 15 min
Overall bit rate                         : 3 108 kb/s
Movie name                               : Akıl Oyunları - A Beautiful Mind - 2001 | Filmbol.org
Encoded date                             : UTC 2021-03-02 11:30:34
Writing application                      : mkvmerge v53.0.0 ('Fool's Gold') 64-bit
Writing library                          : libebml v1.4.1 + libmatroska v1.6.2

Video
ID                                       : 1
Format                                   : AVC
Format/Info                              : Advanced Video Codec
Format profile                           : [email protected]
Format settings                          : CABAC / 4 Ref Frames
Format settings, CABAC                   : Yes
Format settings, Reference frames        : 4 frames
Codec ID                                 : V_MPEG4/ISO/AVC
Duration                                 : 2 h 15 min
Bit rate                                 : 2 500 kb/s
Width                                    : 1 920 pixels
Height                                   : 1 040 pixels
Display aspect ratio                     : 1.85:1
Frame rate mode                          : Constant
Frame rate                               : 23.976 (23976/1000) FPS
Color space                              : YUV
Chroma subsampling                       : 4:2:0
Bit depth                                : 8 bits
Scan type                                : Progressive
Bits/(Pixel*Frame)                       : 0.052
Stream size                              : 2.36 GiB (80%)
Title                                    : Akıl Oyunları - A Beautiful Mind - 2001 | Filmbol.org
Writing library                          : x264 core 152 r2851M ba24899
Encoding settings                        : cabac=1 / ref=4 / deblock=1:-1:-1 / analyse=0x3:0x113 / me=umh / subme=9 / psy=1 / psy_rd=1.00:0.15 / mixed_ref=1 / me_range=24 / chroma_me=1 / trellis=2 / 8x8dct=1 / cqm=0 / deadzone=21,11 / fast_pskip=1 / chroma_qp_offset=-3 / threads=32 / lookahead_threads=4 / sliced_threads=0 / nr=0 / decimate=1 / interlaced=0 / bluray_compat=0 / constrained_intra=0 / bframes=3 / b_pyramid=2 / b_adapt=2 / b_bias=0 / direct=3 / weightb=1 / open_gop=0 / weightp=2 / keyint=250 / keyint_min=25 / scenecut=40 / intra_refresh=0 / rc_lookahead=50 / rc=2pass / mbtree=1 / bitrate=2500 / ratetol=1.0 / qcomp=0.60 / qpmin=0 / qpmax=69 / qpstep=4 / cplxblur=20.0 / qblur=0.5 / vbv_maxrate=31250 / vbv_bufsize=31250 / nal_hrd=none / filler=0 / ip_ratio=1.40 / aq=3:1.00
Default                                  : Yes
Forced                                   : No

Audio #1
ID                                       : 2
Format                                   : AC-3
Format/Info                              : Audio Coding 3
Commercial name                          : Dolby Digital
Codec ID                                 : A_AC3
Duration                                 : 2 h 15 min
Bit rate mode                            : Constant
Bit rate                                 : 384 kb/s
Channel(s)                               : 6 channels
Channel layout                           : L R C LFE Ls Rs
Sampling rate                            : 48.0 kHz
Frame rate                               : 31.250 FPS (1536 SPF)
Compression mode                         : Lossy
Delay relative to video                  : -43 ms
Stream size                              : 372 MiB (12%)
Title                                    : Akıl Oyunları - A Beautiful Mind - 2001 | Filmbol.org
Language                                 : Turkish
Service kind                             : Complete Main
Default                                  : Yes
Forced                                   : No

Audio #2
ID                                       : 3
Format                                   : AAC LC
Format/Info                              : Advanced Audio Codec Low Complexity
Codec ID                                 : A_AAC-2
Duration                                 : 2 h 15 min
Bit rate                                 : 224 kb/s
Channel(s)                               : 6 channels
Channel layout                           : C L R Ls Rs LFE
Sampling rate                            : 48.0 kHz
Frame rate                               : 46.875 FPS (1024 SPF)
Compression mode                         : Lossy
Delay relative to video                  : -43 ms
Stream size                              : 217 MiB (7%)
Title                                    : Akıl Oyunları - A Beautiful Mind - 2001 | Filmbol.org
Language                                 : English
Default                                  : No
Forced                                   : No

Text
ID                                       : 4
Format                                   : UTF-8
Codec ID                                 : S_TEXT/UTF8
Codec ID/Info                            : UTF-8 Plain Text
Duration                                 : 2 h 7 min
Bit rate                                 : 51 b/s
Count of elements                        : 1407
Stream size                              : 47.6 KiB (0%)
Title                                    : Akıl Oyunları - A Beautiful Mind - 2001 | Filmbol.org
Language                                 : Turkish
Default                                  : Yes
Forced                                   : No

Film Detayları


 Akıl Oyunları

 Akıl Oyunları

 Akıl Oyunları


Film Fragmanı


Film İndir


Rar Şifresi: filmbol.org


Uptobox ile indir

1Fichier ile indir

1Fichier'den İndiremiyor musun? Tıklayın!












Şuan Online!
Rapor Et!
Şuan Online!
BroserBros Kurucu Admin
*******
Admin
03.03.2021 Yönetici Notu:

Kırık linkler kontrol edildi, kaldırıldı ve yenilendi. Tüm linkler tamamen çalışır durumda.
Şuan Offine!
Rapor Et!
Şuan Offine!
Muhammed İpek Eski Premium Üye
***
Eski PR Üye
  • Konular0
  • Mesajlar6
  • Rep puanı 0
güzele benziyor
Şuan Offine!
Rapor Et!
Şuan Offine!
swteam Üye
*
Üye
  • Konular0
  • Mesajlar9
  • Rep puanı 0
Teşekkürler.
Şuan Offine!
Rapor Et!
Şuan Offine!
maverick3480 Üye
*
Üye
  • Konular0
  • Mesajlar46
  • Rep puanı 0
paylaşım için teşekkürler..
Şuan Offine!
Rapor Et!
Şuan Offine!
tolga07123 Üye
*
Üye
  • Konular0
  • Mesajlar2
  • Rep puanı 0
Teşekkürler.
Şuan Online!
Rapor Et!
Şuan Online!
TORUKMAKTO Üye
*
Üye
  • Konular4
  • Mesajlar239
  • Rep puanı 14
teşekkürler
Şuan Offine!
Rapor Et!
Şuan Offine!
trmntrmn Süper Üye
***
Super Üye
  • Konular0
  • Mesajlar802
  • Rep puanı 11
Teşekkürler.
Şuan Offine!
Rapor Et!
Şuan Offine!
Makior4 Üye
*
Üye
  • Konular0
  • Mesajlar2
  • Rep puanı 0
Teşekkürler.
Şuan Offine!
Rapor Et!
Şuan Offine!
gfbilkerk Üye
*
Üye
  • Konular0
  • Mesajlar55
  • Rep puanı 0
Teşekkürler.


Hızlı Menü: