⤤ Premium'a Yükselt

Merhaba, Ziyaretçi. Mega linklerinin bir kısmı deaktif halde ve yenileme çalışmalarına başladık. Bu süre içinde ikinci duyuruya kadar mega linklerini raporlamayın!! x

Filmbol Forum Film İndir 720P v Armageddon (Armageddon) - 1998 - TR+ORG - 720P | tt0120591

Filmbol TV kullanıma açıldı. Bu adresten giriş yapabilirsin: Giriş





Armageddon (Armageddon) - 1998 - TR+ORG - 720P | tt0120591
BroserBros
Armageddon (Armageddon) - 1998 - TR+ORG - 720P | tt0120591
4
687
  • Derecelendirme: 0/5 - 0 oy
  • 1
  • 2
  • 3
  • 4
  • 5
Konuyu Okuyanlar:2 Ziyaretçi
Şuan Online!
Filmin Yayınlanma Tarihi: 1998 
WWW
Rapor Et!
Şuan Online!
BroserBros Kurucu Admin
*******
Admin



 Armageddon



Milyonlarca yıl önce, bir meteor dünyada ki yaşamı %95 oranınında yok etti. Eğer bu tekrar gerçekleşirse, neler olurdu? Armageddon, bu konuyu bir film olarak ele alıyor ve bir gün dünyaya küçük meteor parçaları geldiği farkediliyor, bunun sebebini araştıran nasa ise dünyaya büyük bir meteor yaklaştığını farkeder…

Armageddon (1998) (Armageddon) | tt0120591 Filmi Imdb'den 400,000 kişi tarafından oylandı ve 6,7 puan aldı. Bu film için editör puanı %79 olarak belirlendi. İyi Seyirler!

Teknik Detaylar

Kod :
General
Complete name                            : /home/BroserBros/Desktop/4/Armageddon.1998.DVDRip.XViD.TR.Filmbol.avi
Format                                   : AVI
Format/Info                              : Audio Video Interleave
File size                                : 1.37 GiB
Duration                                 : 2 h 30 min
Overall bit rate                         : 1 302 kb/s

Video
ID                                       : 0
Format                                   : MPEG-4 Visual
Format profile                           : Advanced [email protected]
Format settings                          : BVOP2
Format settings, BVOP                    : 2
Format settings, QPel                    : No
Format settings, GMC                     : No warppoints
Format settings, Matrix                  : Default (MPEG)
Codec ID                                 : XVID
Codec ID/Hint                            : XviD
Duration                                 : 2 h 30 min
Bit rate                                 : 1 100 kb/s
Width                                    : 656 pixels
Height                                   : 272 pixels
Display aspect ratio                     : 2.40:1
Frame rate                               : 23.976 (23976/1000) FPS
Color space                              : YUV
Chroma subsampling                       : 4:2:0
Bit depth                                : 8 bits
Scan type                                : Progressive
Compression mode                         : Lossy
Bits/(Pixel*Frame)                       : 0.257
Stream size                              : 1.16 GiB (84%)
Writing library                          : XviD 1.2.1 (UTC 2008-12-04)

Audio
ID                                       : 1
Format                                   : AC-3
Format/Info                              : Audio Coding 3
Commercial name                          : Dolby Digital
Codec ID                                 : 2000
Duration                                 : 2 h 30 min
Bit rate mode                            : Constant
Bit rate                                 : 192 kb/s
Channel(s)                               : 2 channels
Channel layout                           : L R
Sampling rate                            : 48.0 kHz
Frame rate                               : 31.250 FPS (1536 SPF)
Compression mode                         : Lossy
Stream size                              : 206 MiB (15%)
Alignment                                : Aligned on interleaves
Interleave, duration                     : 32  ms (0.77 video frame)
Service kind                             : Complete Main

Film Detayları


 Armageddon

 Armageddon

 Armageddon


Film Fragmanı


Film İndir


Rar Şifresi: filmbol.org


Uptobox ile indir

1Fichier ile indir

1Fichier'den İndiremiyor musun? Tıklayın!












Şuan Online!
Rapor Et!
Şuan Online!
BroserBros Kurucu Admin
*******
Admin
08.03.2021 Yönetici Notu:

Kırık linkler kontrol edildi, kaldırıldı ve yenilendi. Tüm linkler tamamen çalışır durumda.
Şuan Offine!
Rapor Et!
Şuan Offine!
tb8cd Üye
*
Üye
  • Konular0
  • Mesajlar56
  • Rep puanı 0
teşekkürler
Şuan Online!
Rapor Et!
Şuan Online!
myzrail Üye
*
Üye
  • Konular0
  • Mesajlar388
  • Rep puanı 0
efsane bi filimdi!!
Şuan Offine!
Rapor Et!
Şuan Offine!
yavuzerdem20 Üye
*
Üye
  • Konular0
  • Mesajlar53
  • Rep puanı 0
Teşekkürler.


Hızlı Menü: