⤤ Premium'a Yükselt
Filmbol Forum Film İndir BRRip XviD v Spenser Kanunları (Spenser Confidential) - 2020 - TR - BRRip XviD | tt8629748

Filmbol TV kullanıma açıldı. Bu adresten giriş yapabilirsin: Giriş





Spenser Kanunları (Spenser Confidential) - 2020 - TR - BRRip XviD | tt8629748
BroserBros
Spenser Kanunları (Spenser Confidential) - 2020 - TR - BRRip XviD | tt8629748
3
647
  • Derecelendirme: 0/5 - 0 oy
  • 1
  • 2
  • 3
  • 4
  • 5
Konuyu Okuyanlar:2 Ziyaretçi
Şuan Online!
Filmin Yayınlanma Tarihi: 2019 
WWW
Rapor Et!
Şuan Online!
BroserBros Kurucu Admin
*******
Admin



 Spenser Kanunları



Spenser bir süre önce Mahkum edilmiştir ve eski bir polis memurudur. Yani şuanda herhangi bir polislik görevi olmamasına rağmen Spanser, yine de içinden o duyguyu atamamış olacak ki, iki polis memurunun öldürülmesinin ardındaki vakayı incelemek için kendi açısından umut vadeden Hawk ile birlikte işe koyulurlar…

Spenser Kanunları (2020) (Spenser Confidential) | tt8629748 Filmi Imdb'den 75,000 kişi tarafından oylandı ve 6,2 puan aldı. Bu film için editör puanı %77 olarak belirlendi. İyi Seyirler!

Teknik Detaylar

Kod :
General
Complete name                            : /home/BroserBros/Desktop/6/Spenser.Kanunları.2020.BRRip.XviD.TR.Filmbol.avi
Format                                   : AVI
Format/Info                              : Audio Video Interleave
File size                                : 1.31 GiB
Duration                                 : 1 h 51 min
Overall bit rate                         : 1 693 kb/s

Video
ID                                       : 0
Format                                   : MPEG-4 Visual
Format profile                           : Advanced [email protected]
Format settings                          : BVOP2 / Custom Matrix
Format settings, BVOP                    : 2
Format settings, QPel                    : No
Format settings, GMC                     : No warppoints
Format settings, Matrix                  : Custom
Codec ID                                 : XVID
Codec ID/Hint                            : XviD
Duration                                 : 1 h 51 min
Bit rate                                 : 1 552 kb/s
Width                                    : 720 pixels
Height                                   : 352 pixels
Display aspect ratio                     : 2.045
Frame rate                               : 24.000 FPS
Color space                              : YUV
Chroma subsampling                       : 4:2:0
Bit depth                                : 8 bits
Scan type                                : Progressive
Compression mode                         : Lossy
Bits/(Pixel*Frame)                       : 0.255
Stream size                              : 1.21 GiB (92%)
Writing library                          : XviD 1.2.1 (UTC 2008-12-04)

Audio
ID                                       : 1
Format                                   : MPEG Audio
Format version                           : Version 1
Format profile                           : Layer 3
Format settings                          : Joint stereo / MS Stereo
Codec ID                                 : 55
Codec ID/Hint                            : MP3
Duration                                 : 1 h 51 min
Bit rate mode                            : Constant
Bit rate                                 : 128 kb/s
Channel(s)                               : 2 channels
Sampling rate                            : 48.0 kHz
Compression mode                         : Lossy
Stream size                              : 102 MiB (8%)
Alignment                                : Aligned on interleaves
Interleave, duration                     : 24  ms (0.58 video frame)
Writing library                          : LAME3.98.4

Film Detayları


 Spenser Kanunları

 Spenser Kanunları

 Spenser Kanunları


Film Fragmanı


Film İndir


Rar Şifresi: filmbol.org



Uptobox ile indir

1Fichier ile indir

1Fichier'den İndiremiyor musun? Tıklayın!












Şuan Offine!
Rapor Et!
Şuan Offine!
rapper38 Üye
*
Üye
  • Konular0
  • Mesajlar2
  • Rep puanı 0
Teşekkür ederiz
Şuan Online!
Rapor Et!
Şuan Online!
BroserBros Kurucu Admin
*******
Admin
09.03.2021 Yönetici Notu:

Kırık linkler kontrol edildi, kaldırıldı ve yenilendi. Tüm linkler tamamen çalışır durumda.
Şuan Offine!
Rapor Et!
Şuan Offine!
sarihuso Üye
*
Üye
  • Konular0
  • Mesajlar8
  • Rep puanı 0
Teşekkürler.


Hızlı Menü: