⤤ Premium'a Yükselt
Filmbol Forum Film İndir BRRip XviD v Monos (Monos) - 2019 - TR - BRRip XviD | tt6062774

Filmbol TV kullanıma açıldı. Bu adresten giriş yapabilirsin: Giriş





Monos (Monos) - 2019 - TR - BRRip XviD | tt6062774
BroserBros
Monos (Monos) - 2019 - TR - BRRip XviD | tt6062774
1
483
  • Derecelendirme: 0/5 - 0 oy
  • 1
  • 2
  • 3
  • 4
  • 5
Konuyu Okuyanlar:1 Ziyaretçi
Şuan Online!
Filmin Yayınlanma Tarihi: 2019 
WWW
Rapor Et!
Şuan Online!
BroserBros Kurucu Admin
*******
Admin



 Monos



Bir terorist yada gerilla grubu, ABD’de dağlık bir arazida her türlü koşula karşı gelecek çocuklar yetiştirirler. Ancak çocuklar serbest bırakıldığında, hiç eğitim almamış gibi bir hal alırlar, koşup eğlenir normal çocuklar gibi oyun oynarlar. Daha sonra gerillalar çocukları bıraksalar da, çocuklar için her şey normal değildir, ABD onları terorist sanır ve çocukları pusuya düşürür. Çocuklarda eğitim almışlardır ve kullanma vaktinin geldiğini düşünürler…

Monos (2019) (Monos) | tt6062774 Filmi Imdb'den 15,000 kişi tarafından oylandı ve 6,9 puan aldı. Bu film için editör puanı %65 olarak belirlendi. İyi Seyirler!

Teknik Detaylar

Kod :
General
Complete name                            : /home/BroserBros/Desktop/6/Monos.2019.BRRip.XviD.TR.Filmbol.avi
Format                                   : AVI
Format/Info                              : Audio Video Interleave
File size                                : 1.21 GiB
Duration                                 : 1 h 42 min
Overall bit rate                         : 1 693 kb/s

Video
ID                                       : 0
Format                                   : MPEG-4 Visual
Format profile                           : Advanced [email protected]
Format settings                          : BVOP2 / Custom Matrix
Format settings, BVOP                    : 2
Format settings, QPel                    : No
Format settings, GMC                     : No warppoints
Format settings, Matrix                  : Custom
Codec ID                                 : XVID
Codec ID/Hint                            : XviD
Duration                                 : 1 h 42 min
Bit rate                                 : 1 552 kb/s
Width                                    : 720 pixels
Height                                   : 304 pixels
Display aspect ratio                     : 2.35:1
Frame rate                               : 24.000 FPS
Color space                              : YUV
Chroma subsampling                       : 4:2:0
Bit depth                                : 8 bits
Scan type                                : Progressive
Compression mode                         : Lossy
Bits/(Pixel*Frame)                       : 0.295
Stream size                              : 1.11 GiB (92%)
Writing library                          : XviD 1.2.1 (UTC 2008-12-04)

Audio
ID                                       : 1
Format                                   : MPEG Audio
Format version                           : Version 1
Format profile                           : Layer 3
Format settings                          : Joint stereo / MS Stereo
Codec ID                                 : 55
Codec ID/Hint                            : MP3
Duration                                 : 1 h 42 min
Bit rate mode                            : Constant
Bit rate                                 : 128 kb/s
Channel(s)                               : 2 channels
Sampling rate                            : 48.0 kHz
Compression mode                         : Lossy
Stream size                              : 93.9 MiB (8%)
Alignment                                : Aligned on interleaves
Interleave, duration                     : 24  ms (0.58 video frame)
Writing library                          : LAME3.98.4

Film Detayları


 Monos

 Monos

 Monos


Film Fragmanı


Film İndir


Rar Şifresi: filmbol.org



Uptobox ile indir

1Fichier ile indir

1Fichier'den İndiremiyor musun? Tıklayın!












Şuan Online!
Rapor Et!
Şuan Online!
BroserBros Kurucu Admin
*******
Admin
12.03.2021 Yönetici Notu:

Kırık linkler kontrol edildi, kaldırıldı ve yenilendi. Tüm linkler tamamen çalışır durumda.


Hızlı Menü: