⤤ Premium'a Yükselt
Filmbol Forum Film İndir 1080P v Buz Devri: Bir Yılbaşı Macerası (Ice Age: A Mammoth Christmas) - 2011 - TR+ORG - 1080P | tt2100546

Filmbol TV kullanıma açıldı. Bu adresten giriş yapabilirsin: Giriş





Buz Devri: Bir Yılbaşı Macerası (Ice Age: A Mammoth Christmas) - 2011 - TR+ORG - 1080P | tt2100546
BroserBros
Buz Devri: Bir Yılbaşı Macerası (Ice Age: A Mammoth Christmas) - 2011 - TR+ORG - 1080P | tt2100546
17
1221
  • Derecelendirme: 0/5 - 0 oy
  • 1
  • 2
  • 3
  • 4
  • 5
Konuyu Okuyanlar:2 Ziyaretçi
Şuan Online!
Filmin Yayınlanma Tarihi: 2011 
WWW
Rapor Et!
Şuan Online!
BroserBros Kurucu Admin
*******
Admin



 Buz Devri: Bir Yılbaşı Macerası



Buz Devri serisini eminiz ki sevmeyen yada bilmeyen yoktur. Tüm serisini izlediğinizden emin misiniz? Tekrar kontrol edin! Buz Devri 2011 yılında sadece TV için bir animasyon filmi çıkardı. Film, ana konudan haliyle uzak ancak eğlencesi hala var. 26 dakikalık bu kısa film, sizi eminim fazlasıyla memnun edecektir!

Buz Devri: Bir Yılbaşı Macerası (2011) (Ice Age: A Mammoth Christmas) | tt2100546 Filmi Imdb'den 10,000 kişi tarafından oylandı ve 6,5 puan aldı. Bu film için editör puanı %60 olarak belirlendi. İyi Seyirler!

Teknik Detaylar

Kod :
General
Unique ID                                : 89180475803986423442537759789181232668 (0x431788EDEEAFF3F53B67615647AAE61C)
Complete name                            : /home/BroserBros/Desktop/4/Buz.Devri.Bir.Yılbaşı.Macerası.2011.1080p.BluRay.x264.TR.ENG.Filmbol.mkv
Format                                   : Matroska
Format version                           : Version 4
File size                                : 186 MiB
Duration                                 : 25 min 33 s
Overall bit rate                         : 1 020 kb/s
Movie name                               : Buz Devri: Bir Yalbaşı Macerası - Ice Age A Mammoth Christmas - 2011 | Filmbol.org
Encoded date                             : UTC 2021-03-12 14:35:27
Writing application                      : mkvmerge v53.0.0 ('Fool's Gold') 64-bit
Writing library                          : libebml v1.4.1 + libmatroska v1.6.2

Video
ID                                       : 1
Format                                   : AVC
Format/Info                              : Advanced Video Codec
Format profile                           : [email protected]
Format settings                          : CABAC / 4 Ref Frames
Format settings, CABAC                   : Yes
Format settings, Reference frames        : 4 frames
Codec ID                                 : V_MPEG4/ISO/AVC
Duration                                 : 25 min 33 s
Bit rate                                 : 755 kb/s
Width                                    : 1 920 pixels
Height                                   : 1 080 pixels
Display aspect ratio                     : 16:9
Frame rate mode                          : Constant
Frame rate                               : 23.976 (24000/1001) FPS
Color space                              : YUV
Chroma subsampling                       : 4:2:0
Bit depth                                : 8 bits
Scan type                                : Progressive
Bits/(Pixel*Frame)                       : 0.015
Stream size                              : 138 MiB (74%)
Title                                    : 1080P - Filmbol.org
Writing library                          : x264 core 116 r2074 2641b9e
Encoding settings                        : cabac=1 / ref=3 / deblock=1:-2:-1 / analyse=0x3:0x113 / me=umh / subme=5 / psy=1 / psy_rd=1.00:0.00 / mixed_ref=1 / me_range=12 / chroma_me=1 / trellis=1 / 8x8dct=1 / cqm=0 / deadzone=21,11 / fast_pskip=1 / chroma_qp_offset=0 / threads=3 / sliced_threads=0 / nr=0 / decimate=1 / interlaced=0 / bluray_compat=0 / constrained_intra=0 / bframes=16 / b_pyramid=2 / b_adapt=1 / b_bias=0 / direct=3 / weightb=1 / open_gop=0 / weightp=2 / keyint=250 / keyint_min=23 / scenecut=40 / intra_refresh=0 / rc=2pass / mbtree=0 / bitrate=755 / ratetol=1.0 / qcomp=0.60 / qpmin=10 / qpmax=51 / qpstep=4 / cplxblur=20.0 / qblur=0.5 / ip_ratio=1.40 / pb_ratio=1.30 / aq=2:1.00
Default                                  : Yes
Forced                                   : No

Audio #1
ID                                       : 2
Format                                   : MPEG Audio
Format version                           : Version 1
Format profile                           : Layer 3
Codec ID                                 : A_MPEG/L3
Codec ID/Hint                            : MP3
Duration                                 : 25 min 30 s
Bit rate mode                            : Constant
Bit rate                                 : 128 kb/s
Channel(s)                               : 2 channels
Sampling rate                            : 48.0 kHz
Frame rate                               : 41.667 FPS (1152 SPF)
Compression mode                         : Lossy
Delay relative to video                  : 24 ms
Stream size                              : 23.4 MiB (13%)
Title                                    : Türkçe - Filmbol.org
Writing library                          : LAME3.96
Language                                 : Turkish
Default                                  : Yes
Forced                                   : No

Audio #2
ID                                       : 3
Format                                   : AAC LC
Format/Info                              : Advanced Audio Codec Low Complexity
Codec ID                                 : A_AAC-2
Duration                                 : 25 min 33 s
Bit rate                                 : 135 kb/s
Channel(s)                               : 2 channels
Channel layout                           : L R
Sampling rate                            : 48.0 kHz
Frame rate                               : 46.875 FPS (1024 SPF)
Compression mode                         : Lossy
Stream size                              : 24.7 MiB (13%)
Title                                    : Orjinal Dil - Filmbol.org
Language                                 : English
Default                                  : No
Forced                                   : No

Text
ID                                       : 4
Format                                   : UTF-8
Codec ID                                 : S_TEXT/UTF8
Codec ID/Info                            : UTF-8 Plain Text
Duration                                 : 24 min 5 s
Bit rate                                 : 63 b/s
Count of elements                        : 393
Stream size                              : 11.2 KiB (0%)
Title                                    : Türkçe - Filmbol.org
Language                                 : Turkish
Default                                  : Yes
Forced                                   : No

Film Detayları


 Buz Devri: Bir Yılbaşı Macerası

 Buz Devri: Bir Yılbaşı Macerası

 Buz Devri: Bir Yılbaşı Macerası


Film Fragmanı


Film İndir


Rar Şifresi: filmbol.org


Uptobox ile indir

1Fichier ile indir

1Fichier'den İndiremiyor musun? Tıklayın!












Şuan Offine!
Rapor Et!
Şuan Offine!
ebru Üye
*
Üye
  • Konular0
  • Mesajlar4
  • Rep puanı 0
teşekkürler
Şuan Online!
Rapor Et!
Şuan Online!
BroserBros Kurucu Admin
*******
Admin
14.03.2021 Yönetici Notu:

Kırık linkler kontrol edildi, kaldırıldı ve yenilendi. Tüm linkler tamamen çalışır durumda.
Şuan Offine!
Rapor Et!
Şuan Offine!
BIGSHOV Eski Premium Üye
***
Eski PR Üye
  • Konular0
  • Mesajlar8
  • Rep puanı 0
Tesekkurler

Tesekkurler
Şuan Offine!
Rapor Et!
Şuan Offine!
Bornoz Üye
*
Üye
  • Konular0
  • Mesajlar3
  • Rep puanı 0
Teşekkürler filmbol ailesi
Şuan Offine!
Rapor Et!
Şuan Offine!
onaylanmayan11 Üye
*
Üye
  • Konular0
  • Mesajlar26
  • Rep puanı 0
Teşekkürler.
Şuan Offine!
Rapor Et!
Şuan Offine!
Pirmammet Üye
*
Üye
  • Konular0
  • Mesajlar125
  • Rep puanı 0
Teşekkürler.
Şuan Offine!
Rapor Et!
Şuan Offine!
ftm.kskl Üye
*
Üye
  • Konular0
  • Mesajlar1
  • Rep puanı 0
Teşekkürler.
Şuan Offine!
Rapor Et!
Şuan Offine!
seckinultraslan Üye
*
Üye
  • Konular0
  • Mesajlar33
  • Rep puanı 0
Teşekkürler.
Şuan Offine!
Rapor Et!
Şuan Offine!
mustysss Eski Premium Üye
***
Eski PR Üye
  • Konular1
  • Mesajlar242
  • Rep puanı 3
teşekkürler


Hızlı Menü: