⤤ Premium'a Yükselt
Filmbol Forum Film İndir BRRip XviD v Takip 3: Son Karşılaşma (Taken 3) - 2014 - TR - BRRip XviD | tt2446042

Filmbol TV kullanıma açıldı. Bu adresten giriş yapabilirsin: Giriş





Takip 3: Son Karşılaşma (Taken 3) - 2014 - TR - BRRip XviD | tt2446042
BroserBros
Takip 3: Son Karşılaşma (Taken 3) - 2014 - TR - BRRip XviD | tt2446042
3
839
  • Derecelendirme: 0/5 - 0 oy
  • 1
  • 2
  • 3
  • 4
  • 5
Konuyu Okuyanlar:1 Ziyaretçi
Şuan Online!
Filmin Yayınlanma Tarihi: 2014 
WWW
Rapor Et!
Şuan Online!
BroserBros Kurucu Admin
*******
Admin



 Takip 3: Son Karşılaşma




Aksiyon denilince akla gelen Takip serisinin bu filminde, Bryan Mills ailesinin güvende olmasını bilmesi sebebiyle köşesine çekilmiş, güzel bir ev tutmuş ve California’da normal bir hayat sürmektedir. Fakat başı beladan bir türlü kurtulamayan CIA görevlisi, yine kızından dolayı oluşan sorunlardan dolayı kendini yine belanın içinde bulur….

Takip 3: Son Karşılaşma (2014) (Taken 3) | tt2446042 Filmi Imdb'den 180,000 kişi tarafından oylandı ve 6,0 puan aldı. Bu film için editör puanı %78 olarak belirlendi. İyi Seyirler!

Teknik Detaylar

Kod :
General
Complete name                            : /home/BroserBros/Desktop/3/Takip.Son.Karşılaşma.2014.BRRip.XviD.TR.Filmbol.avi
Format                                   : AVI
Format/Info                              : Audio Video Interleave
File size                                : 1.40 GiB
Duration                                 : 1 h 55 min
Overall bit rate                         : 1 736 kb/s

Video
ID                                       : 0
Format                                   : MPEG-4 Visual
Format profile                           : [email protected]
Format settings, BVOP                    : No
Format settings, QPel                    : No
Format settings, GMC                     : No warppoints
Format settings, Matrix                  : Default (H.263)
Codec ID                                 : XVID
Codec ID/Hint                            : XviD
Duration                                 : 1 h 55 min
Bit rate                                 : 1 595 kb/s
Width                                    : 720 pixels
Height                                   : 302 pixels
Display aspect ratio                     : 2.40:1
Frame rate                               : 23.976 (23976/1000) FPS
Color space                              : YUV
Chroma subsampling                       : 4:2:0
Bit depth                                : 8 bits
Scan type                                : Progressive
Compression mode                         : Lossy
Bits/(Pixel*Frame)                       : 0.306
Stream size                              : 1.28 GiB (92%)
Writing library                          : Lavc56.19.100

Audio
ID                                       : 1
Format                                   : MPEG Audio
Format version                           : Version 1
Format profile                           : Layer 3
Format settings                          : Joint stereo / MS Stereo
Codec ID                                 : 55
Codec ID/Hint                            : MP3
Duration                                 : 1 h 55 min
Bit rate mode                            : Constant
Bit rate                                 : 128 kb/s
Channel(s)                               : 2 channels
Sampling rate                            : 48.0 kHz
Frame rate                               : 41.667 FPS (1152 SPF)
Compression mode                         : Lossy
Stream size                              : 106 MiB (7%)
Alignment                                : Aligned on interleaves
Interleave, duration                     : 24  ms (0.58 video frame)

Film Detayları


 Takip 3: Son Karşılaşma

 Takip 3: Son Karşılaşma

 Takip 3: Son Karşılaşma


Film Fragmanı


Film İndir


Rar Şifresi: filmbol.org



Uptobox ile indir

1Fichier ile indir

1Fichier'den İndiremiyor musun? Tıklayın!












Şuan Offine!
Rapor Et!
Şuan Offine!
mdemir55 Üye
*
Üye
  • Konular0
  • Mesajlar5
  • Rep puanı 0
Teşekkürler
Şuan Online!
Rapor Et!
Şuan Online!
BroserBros Kurucu Admin
*******
Admin
14.03.2021 Yönetici Notu:

Kırık linkler kontrol edildi, kaldırıldı ve yenilendi. Tüm linkler tamamen çalışır durumda.
Şuan Offine!
Rapor Et!
Şuan Offine!
Furkan61 Cezalı Üye
  • Konular0
  • Mesajlar288
teşekkürler BroserBros Big Grin


Hızlı Menü: