⤤ Premium'a Yükselt
Filmbol Forum Film İndir BRRip XviD v Elektrik Savaşları (The Current War) - 2017 - TR - BRRip XviD | tt2140507

Filmbol TV kullanıma açıldı. Bu adresten giriş yapabilirsin: Giriş





Elektrik Savaşları (The Current War) - 2017 - TR - BRRip XviD | tt2140507
BroserBros
Elektrik Savaşları (The Current War) - 2017 - TR - BRRip XviD | tt2140507
1
447
  • Derecelendirme: 0/5 - 0 oy
  • 1
  • 2
  • 3
  • 4
  • 5
Konuyu Okuyanlar:1 Ziyaretçi
Şuan Online!
Filmin Yayınlanma Tarihi: 2017 
WWW
Rapor Et!
Şuan Online!
BroserBros Kurucu Admin
*******
Admin



 Elektrik Savaşları



Bir iddia düşünün, kazanan tarihi tümünden değişecektir. Tesla ile Edison’un rekabetini yüksek ihtimalle zaten duymuşsunuzdur. Film, Tesle, Westinghouse ve Edison’a mercek tutarak elektrik’in icadını tekrar ele alıyor…

Elektrik Savaşları (2017) (The Current War) | tt2140507 Filmi Imdb'den 21,000 kişi tarafından oylandı ve 6,5 puan aldı. Bu film için editör puanı %73 olarak belirlendi. İyi Seyirler!

Teknik Detaylar

Kod :
General
Complete name                            : /home/BroserBros/Desktop/5/Elektrik.Savaşları.2017.BRRip.XviD.TR.Filmbol.avi
Format                                   : AVI
Format/Info                              : Audio Video Interleave
File size                                : 1.70 GiB
Duration                                 : 1 h 47 min
Overall bit rate                         : 2 251 kb/s

Video
ID                                       : 0
Format                                   : MPEG-4 Visual
Format profile                           : Advanced [email protected]
Format settings                          : BVOP2 / Custom Matrix
Format settings, BVOP                    : 2
Format settings, QPel                    : No
Format settings, GMC                     : No warppoints
Format settings, Matrix                  : Custom
Codec ID                                 : XVID
Codec ID/Hint                            : XviD
Duration                                 : 1 h 47 min
Bit rate                                 : 2 110 kb/s
Width                                    : 720 pixels
Height                                   : 304 pixels
Display aspect ratio                     : 2.35:1
Frame rate                               : 24.000 FPS
Color space                              : YUV
Chroma subsampling                       : 4:2:0
Bit depth                                : 8 bits
Scan type                                : Progressive
Compression mode                         : Lossy
Bits/(Pixel*Frame)                       : 0.402
Stream size                              : 1.59 GiB (94%)
Writing library                          : XviD 1.2.1 (UTC 2008-12-04)

Audio
ID                                       : 1
Format                                   : MPEG Audio
Format version                           : Version 1
Format profile                           : Layer 3
Format settings                          : Joint stereo / MS Stereo
Codec ID                                 : 55
Codec ID/Hint                            : MP3
Duration                                 : 1 h 47 min
Bit rate mode                            : Constant
Bit rate                                 : 128 kb/s
Channel(s)                               : 2 channels
Sampling rate                            : 48.0 kHz
Compression mode                         : Lossy
Stream size                              : 98.8 MiB (6%)
Alignment                                : Aligned on interleaves
Interleave, duration                     : 24  ms (0.58 video frame)
Writing library                          : LAME3.98.4

Film Detayları


 Elektrik Savaşları

 Elektrik Savaşları

 Elektrik Savaşları


Film Fragmanı


Film İndir


Rar Şifresi: filmbol.org



Uptobox ile indir

1Fichier ile indir

1Fichier'den İndiremiyor musun? Tıklayın!












Şuan Online!
Rapor Et!
Şuan Online!
BroserBros Kurucu Admin
*******
Admin
14.03.2021 Yönetici Notu:

Kırık linkler kontrol edildi, kaldırıldı ve yenilendi. Tüm linkler tamamen çalışır durumda.


Hızlı Menü: