⤤ Premium'a Yükselt
Filmbol Forum Film İndir BRRip XviD v Anna (Anna) - 2019 - TR - BRRip XviD | tt7456310

Filmbol TV kullanıma açıldı. Bu adresten giriş yapabilirsin: Giriş





Anna (Anna) - 2019 - TR - BRRip XviD | tt7456310
BroserBros
Anna (Anna) - 2019 - TR - BRRip XviD | tt7456310
3
656
  • Derecelendirme: 0/5 - 0 oy
  • 1
  • 2
  • 3
  • 4
  • 5
Konuyu Okuyanlar:selcuk, 3 Ziyaretçi
Şuan Online!
Filmin Yayınlanma Tarihi: 2019 
WWW
Rapor Et!
Şuan Online!
BroserBros Kurucu Admin
*******
Admin



 Anna



Anna, Rus tabanlı özel olarak eğitilmiş bir suikastçidir. Ancak Anna, diğerlerinden çok daha farklıdır çünkü Anna hedeflerini alt etmenin temelinde güzelliğini de kullanır ve daha bir çok özelliği vardır. İyi bir santranç ustası, iyi bir ekonomist, iyi bir futbol takipçisi. İnsanlar onun suikastçi olabileceğini aklından bile geçiremezler çünkü oda normal insanlar gibi bilim, kültür ve sanat hakkında fikirlere ve bilgilere sahiptir….

Anna (2019) (Anna) | tt7456310 Filmi Imdb'den 67,000 kişi tarafından oylandı ve 6,6 puan aldı. Bu film için editör puanı %74 olarak belirlendi. İyi Seyirler!

Teknik Detaylar

Kod :
General
Unique ID                                : 331750425070658991592050035244412110367 (0xF994CECA0F23039D8DFC1985900F061F)
Complete name                            : /home/BroserBros/Desktop/2/Anna.2019.BRRip.XviD.TR.Filmbol.avi
Format                                   : Matroska
Format version                           : Version 4
File size                                : 1.42 GiB
Duration                                 : 1 h 58 min
Overall bit rate                         : 1 706 kb/s
Movie name                               : Anna - 2019 | Filmbol.org
Encoded date                             : UTC 2021-05-24 17:42:48
Writing application                      : mkvmerge v53.0.0 ('Fool's Gold') 64-bit
Writing library                          : libebml v1.4.1 + libmatroska v1.6.2
FileExtension_Invalid                    : mkv mk3d mka mks

Video
ID                                       : 1
Format                                   : MPEG-4 Visual
Format profile                           : [email protected]
Format settings, BVOP                    : No
Format settings, QPel                    : No
Format settings, GMC                     : No warppoints
Format settings, Matrix                  : Default (H.263)
Codec ID                                 : V_MS/VFW/FOURCC / XVID
Codec ID/Hint                            : XviD
Duration                                 : 1 h 58 min
Bit rate                                 : 1 577 kb/s
Width                                    : 720 pixels
Height                                   : 302 pixels
Display aspect ratio                     : 2.40:1
Original display aspect ratio            : 2.40:1
Frame rate mode                          : Constant
Frame rate                               : 23.976 FPS
Color space                              : YUV
Chroma subsampling                       : 4:2:0
Bit depth                                : 8 bits
Scan type                                : Progressive
Compression mode                         : Lossy
Bits/(Pixel*Frame)                       : 0.302
Stream size                              : 1.31 GiB (92%)
Title                                    : Anna - 2019 | Filmbol.org
Writing library                          : Lavc58.35.100
Default                                  : Yes
Forced                                   : No

Audio
ID                                       : 2
Format                                   : MPEG Audio
Format version                           : Version 1
Format profile                           : Layer 3
Format settings                          : Joint stereo / MS Stereo
Codec ID                                 : A_MPEG/L3
Codec ID/Hint                            : MP3
Duration                                 : 1 h 58 min
Bit rate mode                            : Constant
Bit rate                                 : 128 kb/s
Channel(s)                               : 2 channels
Sampling rate                            : 48.0 kHz
Frame rate                               : 41.667 FPS (1152 SPF)
Compression mode                         : Lossy
Stream size                              : 109 MiB (8%)
Title                                    : Anna - 2019 | Filmbol.org
Default                                  : Yes
Forced                                   : No

Film Detayları


 Anna

 Anna

 Anna


Film Fragmanı


Film İndir


Rar Şifresi: filmbol.org



Uptobox ile indir

1Fichier ile indir

1Fichier'den İndiremiyor musun? Tıklayın!












Şuan Online!
Rapor Et!
Şuan Online!
BroserBros Kurucu Admin
*******
Admin
25.05.2021 Yönetici Notu:

Kırık linkler kontrol edildi, kaldırıldı ve yenilendi. Tüm linkler tamamen çalışır durumda.
Şuan Offine!
Rapor Et!
Şuan Offine!
Dawn_AS Üye
*
Üye
  • Konular0
  • Mesajlar22
  • Rep puanı 0
Teşekkürler.
Şuan Online!
Rapor Et!
Şuan Online!
selcuk Üye
*
Üye
  • Konular0
  • Mesajlar99
  • Rep puanı 0
Teşekkürler.


Hızlı Menü: