⤤ Premium'a Yükselt
Filmbol Forum Film İndir 1080P v Ödül Avcısı (Bounty Killer) - 2013 - TR+ORG - 1080P | tt2369396

Filmbol TV kullanıma açıldı. Bu adresten giriş yapabilirsin: Giriş





Ödül Avcısı (Bounty Killer) - 2013 - TR+ORG - 1080P | tt2369396
BroserBros
Ödül Avcısı (Bounty Killer) - 2013 - TR+ORG - 1080P | tt2369396
6
517
  • Derecelendirme: 0/5 - 0 oy
  • 1
  • 2
  • 3
  • 4
  • 5
Konuyu Okuyanlar:4 Ziyaretçi
Şuan Online!
Filmin Yayınlanma Tarihi: 2013 
WWW
Rapor Et!
Şuan Online!
BroserBros Kurucu Admin
*******
Admin



 Ödül Avcısı



Büyük şirketler, dünyayı ele geçirmiş ve tahta kurulmuştur, devlet düzeneği yok olmuş, emniyet, polisiye, hastane kavramları yok olmaya yüz tutmuştur. Gözününü para hırsı bürüyen bu insanlar, dünyaya sahipken bile daha fazlasını istemişlerdir. Bu karanlık günlerde işler polisiye ile yürümediği için, bu şirketler ölmesini istediği kişiler için bir ödül koyarlar ve ödül avcıları ise bu ödülü kapmak için yarışırlar….

Ödül Avcısı (2013) (Bounty Killer) | tt2369396 Filmi Imdb'den 7,000 kişi tarafından oylandı ve 5,5 puan aldı. Bu film için editör puanı %52 olarak belirlendi. İyi Seyirler!

Teknik Detaylar

Kod :
General
Unique ID                                : 184535469406323050347719468784978201920 (0x8AD43D170F62CC8D74370B2CFE678D40)
Complete name                            : /home/BroserBros/Desktop/2/Ödül.Avcısı.2013.1080p.BluRay.x264.TR.ENG.Filmbol.mkv
Format                                   : Matroska
Format version                           : Version 4
File size                                : 1.56 GiB
Duration                                 : 1 h 32 min
Overall bit rate                         : 2 416 kb/s
Movie name                               : Ödül Avcısı - Bounty Killer - 2013 | Filmbol.org
Encoded date                             : UTC 2021-05-01 10:20:13
Writing application                      : mkvmerge v53.0.0 ('Fool's Gold') 64-bit
Writing library                          : libebml v1.4.1 + libmatroska v1.6.2

Video
ID                                       : 1
Format                                   : AVC
Format/Info                              : Advanced Video Codec
Format profile                           : [email protected]
Format settings                          : CABAC / 4 Ref Frames
Format settings, CABAC                   : Yes
Format settings, Reference frames        : 4 frames
Codec ID                                 : V_MPEG4/ISO/AVC
Duration                                 : 1 h 32 min
Bit rate                                 : 2 128 kb/s
Width                                    : 1 920 pixels
Height                                   : 800 pixels
Display aspect ratio                     : 2.40:1
Frame rate mode                          : Constant
Frame rate                               : 23.976 (24000/1001) FPS
Original frame rate                      : 23.976 (23976/1000) FPS
Color space                              : YUV
Chroma subsampling                       : 4:2:0
Bit depth                                : 8 bits
Scan type                                : Progressive
Bits/(Pixel*Frame)                       : 0.058
Stream size                              : 1.38 GiB (88%)
Title                                    : 1080P - Filmbol.org
Writing library                          : x264 core 135 r2 f0c1c53
Encoding settings                        : cabac=1 / ref=4 / deblock=1:-1:-1 / analyse=0x3:0x133 / me=umh / subme=9 / psy=1 / psy_rd=1.00:0.15 / mixed_ref=1 / me_range=24 / chroma_me=1 / trellis=2 / 8x8dct=1 / cqm=0 / deadzone=21,11 / fast_pskip=0 / chroma_qp_offset=-3 / threads=36 / lookahead_threads=3 / sliced_threads=0 / nr=0 / decimate=1 / interlaced=0 / bluray_compat=0 / constrained_intra=0 / bframes=3 / b_pyramid=2 / b_adapt=2 / b_bias=0 / direct=3 / weightb=1 / open_gop=0 / weightp=2 / keyint=250 / keyint_min=23 / scenecut=40 / intra_refresh=0 / rc_lookahead=60 / rc=2pass / mbtree=1 / bitrate=2128 / ratetol=1.0 / qcomp=0.60 / qpmin=0 / qpmax=69 / qpstep=4 / cplxblur=20.0 / qblur=0.5 / vbv_maxrate=31250 / vbv_bufsize=31250 / nal_hrd=none / ip_ratio=1.40 / aq=1:1.00
Default                                  : Yes
Forced                                   : No
Color range                              : Limited
Color primaries                          : BT.709
Matrix coefficients                      : BT.709

Audio #1
ID                                       : 2
Format                                   : AC-3
Format/Info                              : Audio Coding 3
Commercial name                          : Dolby Digital
Codec ID                                 : A_AC3
Duration                                 : 1 h 32 min
Bit rate mode                            : Constant
Bit rate                                 : 192 kb/s
Channel(s)                               : 2 channels
Channel layout                           : L R
Sampling rate                            : 48.0 kHz
Frame rate                               : 31.250 FPS (1536 SPF)
Compression mode                         : Lossy
Stream size                              : 127 MiB (8%)
Title                                    : Türkçe - Filmbol.org
Language                                 : Turkish
Service kind                             : Complete Main
Default                                  : Yes
Forced                                   : No

Audio #2
ID                                       : 3
Format                                   : AAC LC
Format/Info                              : Advanced Audio Codec Low Complexity
Codec ID                                 : A_AAC-2
Duration                                 : 1 h 32 min
Bit rate                                 : 93.7 kb/s
Channel(s)                               : 2 channels
Channel layout                           : L R
Sampling rate                            : 48.0 kHz
Frame rate                               : 46.875 FPS (1024 SPF)
Compression mode                         : Lossy
Stream size                              : 62.1 MiB (4%)
Title                                    : Orjinal Dil - Filmbol.org
Language                                 : English
Default                                  : No
Forced                                   : No

Text
ID                                       : 4
Format                                   : UTF-8
Codec ID                                 : S_TEXT/UTF8
Codec ID/Info                            : UTF-8 Plain Text
Duration                                 : 1 h 26 min
Bit rate                                 : 52 b/s
Count of elements                        : 1097
Stream size                              : 32.9 KiB (0%)
Title                                    : Türkçe - Filmbol.org
Language                                 : Turkish
Default                                  : No
Forced                                   : No

Film Detayları


 Ödül Avcısı

 Ödül Avcısı

 Ödül Avcısı


Film Fragmanı


Film İndir


Rar Şifresi: filmbol.org


Uptobox ile indir

1Fichier ile indir

1Fichier'den İndiremiyor musun? Tıklayın!












Şuan Offine!
Rapor Et!
Şuan Offine!
Ugur_1988 Premium Üye
****
  • Konular12
  • Mesajlar96
  • Rep puanı 26
10 numara site
Şuan Online!
Rapor Et!
Şuan Online!
BroserBros Kurucu Admin
*******
Admin
02.05.2021 Yönetici Notu:

Kırık linkler kontrol edildi, kaldırıldı ve yenilendi. Tüm linkler tamamen çalışır durumda.
Şuan Offine!
Rapor Et!
Şuan Offine!
angelord Üye
*
Üye
  • Konular1
  • Mesajlar137
  • Rep puanı 0
teşekkürler
Şuan Offine!
Rapor Et!
Şuan Offine!
suluaho Üye
*
Üye
  • Konular0
  • Mesajlar57
  • Rep puanı 0
Teşekkürler.
Şuan Online!
Rapor Et!
Şuan Online!
TORUKMAKTO Üye
*
Üye
  • Konular4
  • Mesajlar239
  • Rep puanı 14
teşekkürler
Şuan Online!
Rapor Et!
Şuan Online!
Yusuf 00 Premium Üye
****
  • Konular17
  • Mesajlar214
  • Rep puanı 36
Teşekkürler.


Hızlı Menü: