⤤ Premium'a Yükselt
Filmbol Forum Film İndir 720P v Takip 1: 96 Saat (Taken) - 2008 - TR+ORG - 720P | tt0936501

Filmbol TV kullanıma açıldı. Bu adresten giriş yapabilirsin: Giriş





Takip 1: 96 Saat (Taken) - 2008 - TR+ORG - 720P | tt0936501
BroserBros
Takip 1: 96 Saat (Taken) - 2008 - TR+ORG - 720P | tt0936501
9
942
  • Derecelendirme: 0/5 - 0 oy
  • 1
  • 2
  • 3
  • 4
  • 5
Konuyu Okuyanlar:2 Ziyaretçi
Şuan Online!
Filmin Yayınlanma Tarihi: 2009 
WWW
Rapor Et!
Şuan Online!
BroserBros Kurucu Admin
*******
Admin



 Takip 1: 96 Saat



Emekli olan Bryan, çok da iyi bir hayata sahip değildir. Karısı ile ikişisi iyi değil ve ayrıdırlar. Kızıyla arası iyi sayılabilir ancak CIA ajanı olduğu için onunla da fazla ilgenememiştir. Bu yüzden Bryan bu hayattan nefret etmeye başlamış ve emekli oluşu sayesinde de kızına daha fazla ilgi göstermeye başlamak istemektedir. Ancak bir sorun vardır ki, kızı bir grup çete tarafından kaçırılmıştır ve kurtarmak için çok kısıtlı bir vaktir vardır….

Takip 1: 96 Saat (2008) (Taken) | tt0936501 Filmi Imdb'den 570,000 kişi tarafından oylandı ve 7,8 puan aldı. Bu film için editör puanı %89 olarak belirlendi. İyi Seyirler!

Teknik Detaylar

Kod :
General
Unique ID                                : 8785816022577856430774560100224953311 (0x69C162C7DA62810D5921F5C11116BDF)
Complete name                            : /home/BroserBros/Desktop/5/Takip.96.Saat.2008.Extended.720p.BluRay.x264.TR.ENG.Filmbol.mkv
Format                                   : Matroska
Format version                           : Version 4
File size                                : 859 MiB
Duration                                 : 1 h 33 min
Overall bit rate                         : 1 285 kb/s
Movie name                               : Takip: 96 Saat - Taken - 2008 | Filmbol.org
Encoded date                             : UTC 2021-05-06 15:09:05
Writing application                      : mkvmerge v53.0.0 ('Fool's Gold') 64-bit
Writing library                          : libebml v1.4.1 + libmatroska v1.6.2

Video
ID                                       : 1
Format                                   : AVC
Format/Info                              : Advanced Video Codec
Format profile                           : [email protected]
Format settings                          : CABAC / 4 Ref Frames
Format settings, CABAC                   : Yes
Format settings, Reference frames        : 4 frames
Codec ID                                 : V_MPEG4/ISO/AVC
Duration                                 : 1 h 33 min
Bit rate                                 : 756 kb/s
Width                                    : 1 280 pixels
Height                                   : 544 pixels
Display aspect ratio                     : 2.35:1
Frame rate mode                          : Constant
Frame rate                               : 23.976 (24000/1001) FPS
Color space                              : YUV
Chroma subsampling                       : 4:2:0
Bit depth                                : 8 bits
Scan type                                : Progressive
Bits/(Pixel*Frame)                       : 0.045
Stream size                              : 505 MiB (59%)
Title                                    : 720P - Filmbol.org
Writing library                          : x264 core 120 r2164 da19765
Encoding settings                        : cabac=1 / ref=4 / deblock=1:-2:-1 / analyse=0x3:0x113 / me=umh / subme=8 / psy=1 / psy_rd=1.00:0.00 / mixed_ref=1 / me_range=12 / chroma_me=1 / trellis=1 / 8x8dct=1 / cqm=0 / deadzone=21,11 / fast_pskip=1 / chroma_qp_offset=-2 / threads=3 / sliced_threads=0 / nr=0 / decimate=1 / interlaced=0 / bluray_compat=0 / constrained_intra=0 / bframes=16 / b_pyramid=2 / b_adapt=1 / b_bias=0 / direct=3 / weightb=1 / open_gop=0 / weightp=2 / keyint=240 / keyint_min=23 / scenecut=40 / intra_refresh=0 / rc=2pass / mbtree=0 / bitrate=756 / ratetol=1.0 / qcomp=0.60 / qpmin=10 / qpmax=51 / qpstep=4 / cplxblur=20.0 / qblur=0.5 / ip_ratio=1.40 / pb_ratio=1.30 / aq=2:1.00
Default                                  : Yes
Forced                                   : No

Audio #1
ID                                       : 2
Format                                   : AC-3
Format/Info                              : Audio Coding 3
Commercial name                          : Dolby Digital
Codec ID                                 : A_AC3
Duration                                 : 1 h 33 min
Bit rate mode                            : Constant
Bit rate                                 : 448 kb/s
Channel(s)                               : 6 channels
Channel layout                           : L R C LFE Ls Rs
Sampling rate                            : 48.0 kHz
Frame rate                               : 31.250 FPS (1536 SPF)
Compression mode                         : Lossy
Delay relative to video                  : 875 ms
Stream size                              : 299 MiB (35%)
Title                                    : Türkçe - Filmbol.org
Language                                 : Turkish
Service kind                             : Complete Main
Default                                  : Yes
Forced                                   : No

Audio #2
ID                                       : 3
Format                                   : AAC LC SBR
Format/Info                              : Advanced Audio Codec Low Complexity with Spectral Band Replication
Commercial name                          : HE-AAC
Format settings                          : Explicit
Codec ID                                 : A_AAC-2
Duration                                 : 1 h 33 min
Bit rate                                 : 63.9 kb/s
Channel(s)                               : 2 channels
Channel layout                           : L R
Sampling rate                            : 44.1 kHz
Frame rate                               : 21.533 FPS (2048 SPF)
Compression mode                         : Lossy
Delay relative to video                  : -125 ms
Stream size                              : 42.7 MiB (5%)
Title                                    : Orjinal Dil - Filmbol.org
Language                                 : English
Default                                  : No
Forced                                   : No

Text
ID                                       : 4
Format                                   : PGS
Muxing mode                              : zlib
Codec ID                                 : S_HDMV/PGS
Codec ID/Info                            : Picture based subtitle format used on BDs/HD-DVDs
Duration                                 : 1 h 27 min
Bit rate                                 : 39.5 kb/s
Count of elements                        : 1826
Stream size                              : 24.8 MiB (3%)
Title                                    : Türkçe - Filmbol.org
Language                                 : Turkish
Default                                  : No
Forced                                   : No

Film Detayları


 Takip 1: 96 Saat

 Takip 1: 96 Saat

 Takip 1: 96 Saat


Film Fragmanı


Film İndir


Rar Şifresi: filmbol.org


Uptobox ile indir

1Fichier ile indir

1Fichier'den İndiremiyor musun? Tıklayın!












Şuan Offine!
Rapor Et!
Şuan Offine!
vago Uzman Üye
**
Uzman Üye
  • Konular0
  • Mesajlar7
  • Rep puanı 0
saolun
Şuan Online!
Rapor Et!
Şuan Online!
BroserBros Kurucu Admin
*******
Admin
07.05.2021 Yönetici Notu:

Kırık linkler kontrol edildi, kaldırıldı ve yenilendi. Tüm linkler tamamen çalışır durumda.
Şuan Offine!
Rapor Et!
Şuan Offine!
eyüpbey Üye
*
Üye
  • Konular0
  • Mesajlar1
  • Rep puanı 0
Teşekkür ederim.
Şuan Offine!
Rapor Et!
Şuan Offine!
selemen01 Üye
*
Üye
  • Konular0
  • Mesajlar3
  • Rep puanı 0
MUG FİLİM
Şuan Offine!
Rapor Et!
Şuan Offine!
myzrail Üye
*
Üye
  • Konular0
  • Mesajlar387
  • Rep puanı 0
güzel seri 2. sinide ekleyecekmısınız ?
Şuan Offine!
Rapor Et!
Şuan Offine!
haso_of Üye
*
Üye
  • Konular0
  • Mesajlar4
  • Rep puanı 0
Teşekkürler.
Şuan Offine!
Rapor Et!
Şuan Offine!
rikafour Üye
*
Üye
  • Konular0
  • Mesajlar167
  • Rep puanı 0
Teşekkürler.
Şuan Online!
Rapor Et!
Şuan Online!
avis Üye
*
Üye
  • Konular0
  • Mesajlar29
  • Rep puanı 0
Teşekkürler.
Şuan Offine!
Rapor Et!
Şuan Offine!
Billyzane Üye
*
Üye
  • Konular0
  • Mesajlar8
  • Rep puanı 0
Teşekkürler.


Hızlı Menü: