⤤ Premium'a Yükselt
Filmbol Forum Film İndir BRRip XviD v Aquarela (Aquarela) - 2018 - TR - BRRip XviD | tt4920360

Filmbol TV kullanıma açıldı. Bu adresten giriş yapabilirsin: Giriş





Aquarela (Aquarela) - 2018 - TR - BRRip XviD | tt4920360
BroserBros
Aquarela (Aquarela) - 2018 - TR - BRRip XviD | tt4920360
1
411
  • Derecelendirme: 0/5 - 0 oy
  • 1
  • 2
  • 3
  • 4
  • 5
Konuyu Okuyanlar:1 Ziyaretçi
Şuan Online!
Filmin Yayınlanma Tarihi: 2018 
WWW
Rapor Et!
Şuan Online!
BroserBros Kurucu Admin
*******
Admin



 Aquarela



Aquarela izlediğiniz belgesellerden çok farklı, canlılara yada insanları konu almıyor, yaşamın yapıtaşı olan suya mercek tutuyor. İnanılmaz görüntüler ile desteklenen bu belgeseli eğer kuzey belgeselleri ve su belgesellerini seviyorsanız kesinlikle izlemeniz gereken bir belgesel..

Aquarela (2018) (Aquarela) | tt4920360 Filmi Imdb'den 1,500 kişi tarafından oylandı ve 6,6 puan aldı. Bu film için editör puanı %72 olarak belirlendi. İyi Seyirler!

Teknik Detaylar

Kod :
General
Complete name                            : /home/BroserBros/Desktop/2/Aquarela.2018.BRRip.XviD.TR.Filmbol.avi
Format                                   : AVI
Format/Info                              : Audio Video Interleave
File size                                : 744 MiB
Duration                                 : 1 h 29 min
Overall bit rate                         : 1 159 kb/s

Video
ID                                       : 0
Format                                   : MPEG-4 Visual
Format profile                           : Advanced [email protected]
Format settings                          : BVOP2
Format settings, BVOP                    : 2
Format settings, QPel                    : No
Format settings, GMC                     : No warppoints
Format settings, Matrix                  : Default (H.263)
Codec ID                                 : DIVX
Codec ID/Info                            : Project Mayo
Codec ID/Hint                            : DivX 4
Duration                                 : 1 h 29 min
Bit rate                                 : 954 kb/s
Width                                    : 768 pixels
Height                                   : 320 pixels
Display aspect ratio                     : 2.40:1
Frame rate                               : 23.976 (24000/1001) FPS
Color space                              : YUV
Chroma subsampling                       : 4:2:0
Bit depth                                : 8 bits
Scan type                                : Progressive
Compression mode                         : Lossy
Bits/(Pixel*Frame)                       : 0.162
Stream size                              : 612 MiB (82%)
Writing library                          : XviD 67

Audio
ID                                       : 1
Format                                   : MPEG Audio
Format version                           : Version 1
Format profile                           : Layer 3
Codec ID                                 : 55
Codec ID/Hint                            : MP3
Duration                                 : 1 h 29 min
Bit rate mode                            : Constant
Bit rate                                 : 192 kb/s
Channel(s)                               : 2 channels
Sampling rate                            : 48.0 kHz
Compression mode                         : Lossy
Stream size                              : 123 MiB (17%)
Alignment                                : Aligned on interleaves
Interleave, duration                     : 24  ms (0.58 video frame)
Writing library                          : LAME3.100ªªªªªªªÅi*î

Film Detayları


 Aquarela

 Aquarela

 Aquarela


Film Fragmanı


Film İndir


Rar Şifresi: filmbol.org



Uptobox ile indir

1Fichier ile indir

1Fichier'den İndiremiyor musun? Tıklayın!












Şuan Online!
Rapor Et!
Şuan Online!
BroserBros Kurucu Admin
*******
Admin
28.05.2021 Yönetici Notu:

Kırık linkler kontrol edildi, kaldırıldı ve yenilendi. Tüm linkler tamamen çalışır durumda.


Hızlı Menü: