Filmbol Forum Film İndir BRRip XviD v Morgan (Morgan) - 2016 - TR - BRRip XviD | tt4520364
Mega linklerinin şikayet edilmemesi için global erişime kapatıp sadece yorum yapanlara açıyoruz. Bu linkleri gizleme işlemini mecburen yapıyoruz ve yorum yapmanızın siteye değil size faydası vardır. Teşekürler yazmayı çok görüp, Random/Spam mesajlar atarak Mega linklerini açmaya çalışan kullanıcılara önce süresiz ban, devam ederse IP ban atacağız.
Filmbol'da moderatör olmak ister misiniz? Bizimle iletişime geçmek için tıklayın!
Morgan (Morgan) - 2016 - TR - BRRip XviD | tt4520364
BroserBros
Morgan (Morgan) - 2016 - TR - BRRip XviD | tt4520364
4
1405
  • Derecelendirme: 0/5 - 0 oy
  • 1
  • 2
  • 3
  • 4
  • 5
Konuyu Okuyanlar:2 Ziyaretçi
Şuan Online!
Filmin Yayınlanma Tarihi: 2016 
WWW
Şuan Online!
BroserBros Kurucu Admin
*******
Admin



 Morgan



Bir kurumsal risk yönetimi danışmanı, yapay olarak yaratılmış bir insansı varlığın feshedilip verilmeyeceğine karar vermelidir.

Morgan (2016) (Morgan) | tt4520364 Filmi Imdb'den 41,000 kişi tarafından oylandı ve 5,8 puan aldı. Bu film için editör puanı %62 olarak belirlendi. İyi Seyirler!

Teknik Detaylar

Kod :
General
Unique ID                                : 227996607062866575280370410568158743634 (0xAB868C9D5BE1EE00A48DC181B0E70C52)
Complete name                            : /home/BroserBros/Desktop/2/Morgan.2016.BRRip.XviD.TR.Filmbol.avi
Format                                   : Matroska
Format version                           : Version 4
File size                                : 1.18 GiB
Duration                                 : 1 h 31 min
Overall bit rate                         : 1 835 kb/s
Movie name                               : Morgan - 2016 | Filmbol.org
Encoded date                             : UTC 2021-04-28 12:39:48
Writing application                      : mkvmerge v53.0.0 ('Fool's Gold') 64-bit
Writing library                          : libebml v1.4.1 + libmatroska v1.6.2
FileExtension_Invalid                    : mkv mk3d mka mks

Video
ID                                       : 1
Format                                   : MPEG-4 Visual
Format profile                           : Advanced [email protected]
Format settings                          : BVOP2
Format settings, BVOP                    : 2
Format settings, QPel                    : No
Format settings, GMC                     : No warppoints
Format settings, Matrix                  : Default (H.263)
Muxing mode                              : Packed bitstream
Codec ID                                 : V_MS/VFW/FOURCC / XVID
Codec ID/Hint                            : XviD
Duration                                 : 1 h 31 min
Bit rate                                 : 1 705 kb/s
Width                                    : 720 pixels
Height                                   : 304 pixels
Display aspect ratio                     : 2.35:1
Frame rate mode                          : Constant
Frame rate                               : 23.976 (23976/1000) FPS
Color space                              : YUV
Chroma subsampling                       : 4:2:0
Bit depth                                : 8 bits
Scan type                                : Progressive
Compression mode                         : Lossy
Bits/(Pixel*Frame)                       : 0.325
Stream size                              : 1.09 GiB (93%)
Title                                    : Morgan - 2016 | Filmbol.org
Writing library                          : XviD 66
Default                                  : Yes
Forced                                   : No

Audio
ID                                       : 2
Format                                   : MPEG Audio
Format version                           : Version 1
Format profile                           : Layer 3
Format settings                          : Joint stereo / MS Stereo
Codec ID                                 : A_MPEG/L3
Codec ID/Hint                            : MP3
Duration                                 : 1 h 31 min
Bit rate mode                            : Constant
Bit rate                                 : 128 kb/s
Channel(s)                               : 2 channels
Sampling rate                            : 48.0 kHz
Frame rate                               : 41.667 FPS (1152 SPF)
Compression mode                         : Lossy
Stream size                              : 84.1 MiB (7%)
Title                                    : Morgan - 2016 | Filmbol.org
Default                                  : Yes
Forced                                   : No

Film Detayları


 Morgan

 Morgan

 Morgan


Film Fragmanı


Film Detayları


Uptobox ile indir

1Fichier ile indir

1Fichier'den İndiremiyor musun? Tıklayın!


Mega linki şuan da gizli. Kullanıma açmak için konuya yorum yapın ve ardından sayfayı yenileyin.

Mega


Bunun için üzgünüz ancak, bu linke sadece premium üyeler erişebilir.

Filmbol Cloud





Şuan Offine!
Şuan Offine!
kartal Uzman Üye
**
Uzman Üye

  • Konular0
  • Mesajlar21
  • Rep puanı 0
Teşekkürler
Şuan Online!
Şuan Online!
BroserBros Kurucu Admin
*******
Admin

30.04.2021 Yönetici Notu:

Kırık linkler kontrol edildi, kaldırıldı ve yenilendi. Tüm linkler tamamen çalışır durumda.
Şuan Online!
Şuan Online!
Furkan61 Süper Üye
***
Super Üye

  • Konular0
  • Mesajlar220
  • Rep puanı 1
teşekkürler admin
Şuan Online!
Şuan Online!
algül Süper Üye
***
Super Üye

  • Konular0
  • Mesajlar38
  • Rep puanı 0
Teşekkürler


Konu ile Alakalı Benzer Konular
Konular Yazar Yorumlar Okunma Son Yorum
Filmin Yayınlanma Tarihi: 2018
Han Solo: Bir Star Wars Hikâyesi (Solo: A Star Wars Story) - 2018 - TR - BRRip XviD | tt3778644 BroserBros 2 438 2 saat önce
Son Yorum: Furkan61
Filmin Yayınlanma Tarihi: 2015
Yıldız Savaşları 7: Güç Uyanıyor (Star Wars: Episode VII - The Force Awakens) - 2015 - TR - BRRip XviD | tt2488496 BroserBros 8 2,184 2 saat önce
Son Yorum: Furkan61
Filmin Yayınlanma Tarihi: 1983
Yıldız Savaşları 6: Jedi'ın Dönüşü (Star Wars: Episode VI - Return of the Jedi) - 1983 - TR - BRRip XviD | tt0086190 BroserBros 8 1,785 2 saat önce
Son Yorum: Furkan61
Filmin Yayınlanma Tarihi: 1980
Yıldız Savaşları 5: İmparator (Star Wars: Episode V - The Empire Strikes Back) - 1980 - TR - BRRip XviD | tt0080684 BroserBros 6 1,779 2 saat önce
Son Yorum: Furkan61
Filmin Yayınlanma Tarihi: 2011
Transformers: Ay'ın Karanlık Yüzü (Transformers: Dark of the Moon) - 2011 - TR - BRRip XviD | tt1399103 TheSteeL 2 14 8 saat önce
Son Yorum: TheSteeL

Hızlı Menü: