⤤ Premium'a Yükselt

Merhaba, Ziyaretçi. Mega linklerinin bir kısmı deaktif halde ve yenileme çalışmalarına başladık. Bu süre içinde ikinci duyuruya kadar mega linklerini raporlamayın!! x

Filmbol Forum Film İndir BRRip XviD v Canavar (Cloverfield) - 2008 - TR - BRRip XviD | tt1060277

Filmbol TV kullanıma açıldı. Bu adresten giriş yapabilirsin: Giriş





Canavar (Cloverfield) - 2008 - TR - BRRip XviD | tt1060277
BroserBros
Canavar (Cloverfield) - 2008 - TR - BRRip XviD | tt1060277
1
434
  • Derecelendirme: 0/5 - 0 oy
  • 1
  • 2
  • 3
  • 4
  • 5
Konuyu Okuyanlar:2 Ziyaretçi
Şuan Online!
Filmin Yayınlanma Tarihi: 2008 
WWW
Rapor Et!
Şuan Online!
BroserBros Kurucu Admin
*******
Admin



 Canavar



New York’ta sıradan bir günde insanların hiç de beklemediği bir saldırı olur. Bu saldırının ne olduğu hakkında kimsenin bir bilgisi yoktur, insanlar dışarı çıkar ve heryerin alev topuna döndüğü görülür. Özgürlük Anıtı’nın kafası uçmuş, New York yerle bir olmaktadır. Bu durumu sebep olan Canavar’ı bir grup görür ve kameralar onlara çevrilir… Zamanın büyük bütçeleri ile yapılmış bu film, farklı kamera açısı ile dikkat çekiyor…

Canavar (2008) (Cloverfield) | tt1060277 Filmi Imdb'den 370,000 kişi tarafından oylandı ve 7,0 puan aldı. Bu film için editör puanı %79 olarak belirlendi. İyi Seyirler!

Teknik Detaylar

Kod :
General
Unique ID                                : 120299861623511334115680844167546043573 (0x5A80E91BD004925B2D44D69A9FA67CB5)
Complete name                            : /home/BroserBros/Desktop/8/Canavar.2008.BRRip.XviD.TR.Filmbol.avi
Format                                   : Matroska
Format version                           : Version 4
File size                                : 698 MiB
Duration                                 : 1 h 21 min
Overall bit rate                         : 1 202 kb/s
Movie name                               : Canavar - Cloverfield - 2008 | Filmbol.org
Encoded date                             : UTC 2021-05-24 17:49:04
Writing application                      : mkvmerge v53.0.0 ('Fool's Gold') 64-bit
Writing library                          : libebml v1.4.1 + libmatroska v1.6.2
FileExtension_Invalid                    : mkv mk3d mka mks

Video
ID                                       : 1
Format                                   : MPEG-4 Visual
Format profile                           : [email protected]
Format settings, BVOP                    : No
Format settings, QPel                    : No
Format settings, GMC                     : No warppoints
Format settings, Matrix                  : Default (H.263)
Codec ID                                 : V_MS/VFW/FOURCC / XVID
Codec ID/Hint                            : XviD
Duration                                 : 1 h 21 min
Bit rate                                 : 1 072 kb/s
Width                                    : 640 pixels
Height                                   : 362 pixels
Display aspect ratio                     : 16:9
Frame rate mode                          : Constant
Frame rate                               : 25.000 FPS
Color space                              : YUV
Chroma subsampling                       : 4:2:0
Bit depth                                : 8 bits
Scan type                                : Progressive
Compression mode                         : Lossy
Bits/(Pixel*Frame)                       : 0.185
Stream size                              : 623 MiB (89%)
Title                                    : Canavar - Cloverfield - 2008 | Filmbol.org
Writing library                          : XviD 1.1.2 (UTC 2006-11-01)
Default                                  : Yes
Forced                                   : No

Audio
ID                                       : 2
Format                                   : MPEG Audio
Format version                           : Version 1
Format profile                           : Layer 3
Format settings                          : Joint stereo / MS Stereo
Codec ID                                 : A_MPEG/L3
Codec ID/Hint                            : MP3
Duration                                 : 1 h 21 min
Bit rate mode                            : Constant
Bit rate                                 : 128 kb/s
Channel(s)                               : 2 channels
Sampling rate                            : 48.0 kHz
Frame rate                               : 41.667 FPS (1152 SPF)
Compression mode                         : Lossy
Stream size                              : 74.3 MiB (11%)
Title                                    : Canavar - Cloverfield - 2008 | Filmbol.org
Writing library                          : LAME3.97
Default                                  : Yes
Forced                                   : No

Film Detayları


 Canavar

 Canavar

 Canavar


Film Fragmanı


Film İndir


Rar Şifresi: filmbol.org



Uptobox ile indir

1Fichier ile indir

1Fichier'den İndiremiyor musun? Tıklayın!












Şuan Online!
Rapor Et!
Şuan Online!
BroserBros Kurucu Admin
*******
Admin
25.05.2021 Yönetici Notu:

Kırık linkler kontrol edildi, kaldırıldı ve yenilendi. Tüm linkler tamamen çalışır durumda.


Hızlı Menü: