⤤ Premium'a Yükselt
Filmbol Forum Film İndir 720P v Güneşin Karanlığında (The Lincoln Lawyer) - 2011 - TR+ORG - 720P | tt1189340

Filmbol TV kullanıma açıldı. Bu adresten giriş yapabilirsin: Giriş





Güneşin Karanlığında (The Lincoln Lawyer) - 2011 - TR+ORG - 720P | tt1189340
BroserBros
Güneşin Karanlığında (The Lincoln Lawyer) - 2011 - TR+ORG - 720P | tt1189340
1
443
  • Derecelendirme: 0/5 - 0 oy
  • 1
  • 2
  • 3
  • 4
  • 5
Konuyu Okuyanlar:1 Ziyaretçi
Şuan Online!
Filmin Yayınlanma Tarihi: 2011 
WWW
Rapor Et!
Şuan Online!
BroserBros Kurucu Admin
*******
Admin



 Güneşin Karanlığında



Karizmatik bir avukat olan Lincoln, zamanın çoğunu ofisinde geçirmekte ve basit davalar ile para kazanmaya devam etmektedir. Lincoln’ün aldığı davalar genellikle zor olmayan ve orantılı olarak parasıda düşük işlerdir. Bir gün Lincoln’ün karşısına zorlu bir iş çıkar, zengin ve varlıklı olan bir kişi cinayet davasına karışmış, avukat olarakta Lincoln’ü seçmiştir. Lincoln parası iyi olduğu için işi hemen kabul etmiştir ancak iş göründüğü gibi değildir ve altında bir çok şey yatmaktadır, aslında bu bir komplodur…

Güneşin Karanlığında (2011) (The Lincoln Lawyer) | tt1189340 Filmi Imdb'den 220,000 kişi tarafından oylandı ve 7,3 puan aldı. Bu film için editör puanı %84 olarak belirlendi. İyi Seyirler!

Teknik Detaylar

Kod :
General
Unique ID                                : 273165730122450981070285817376182646942 (0xCD81CE523C700BC9A9D45BF99C78389E)
Complete name                            : /home/BroserBros/Desktop/7/Güneşin.Karanlığında.2011.720p.BluRay.x264.TR.ENG.Filmbol.mkv
Format                                   : Matroska
Format version                           : Version 4
File size                                : 859 MiB
Duration                                 : 1 h 58 min
Overall bit rate                         : 1 014 kb/s
Movie name                               : Güneşin Karanlığında - The Lincoln Lawyer - 2011 | Filmbol.org
Encoded date                             : UTC 2021-05-30 12:14:23
Writing application                      : mkvmerge v53.0.0 ('Fool's Gold') 64-bit
Writing library                          : libebml v1.4.1 + libmatroska v1.6.2

Video
ID                                       : 1
Format                                   : AVC
Format/Info                              : Advanced Video Codec
Format profile                           : [email protected]
Format settings                          : CABAC / 5 Ref Frames
Format settings, CABAC                   : Yes
Format settings, Reference frames        : 5 frames
Codec ID                                 : V_MPEG4/ISO/AVC
Duration                                 : 1 h 58 min
Bit rate                                 : 789 kb/s
Width                                    : 1 280 pixels
Height                                   : 544 pixels
Display aspect ratio                     : 2.35:1
Frame rate mode                          : Constant
Frame rate                               : 23.976 (24000/1001) FPS
Color space                              : YUV
Chroma subsampling                       : 4:2:0
Bit depth                                : 8 bits
Scan type                                : Progressive
Bits/(Pixel*Frame)                       : 0.047
Stream size                              : 668 MiB (78%)
Title                                    : 720P - Filmbol.org
Writing library                          : x264 core 115 r1995 c1e60b9
Encoding settings                        : cabac=1 / ref=5 / deblock=1:-2:-1 / analyse=0x3:0x113 / me=umh / subme=5 / psy=1 / psy_rd=1.00:0.00 / mixed_ref=1 / me_range=16 / chroma_me=1 / trellis=1 / 8x8dct=1 / cqm=0 / deadzone=21,11 / fast_pskip=1 / chroma_qp_offset=0 / threads=3 / sliced_threads=0 / nr=0 / decimate=1 / interlaced=0 / bluray_compat=0 / constrained_intra=0 / bframes=16 / b_pyramid=2 / b_adapt=1 / b_bias=0 / direct=3 / weightb=1 / open_gop=0 / weightp=2 / keyint=250 / keyint_min=23 / scenecut=40 / intra_refresh=0 / rc=2pass / mbtree=0 / bitrate=789 / ratetol=1.0 / qcomp=0.60 / qpmin=10 / qpmax=51 / qpstep=4 / cplxblur=20.0 / qblur=0.5 / ip_ratio=1.40 / pb_ratio=1.30 / aq=2:1.00
Default                                  : Yes
Forced                                   : No

Audio #1
ID                                       : 2
Format                                   : AC-3
Format/Info                              : Audio Coding 3
Commercial name                          : Dolby Digital
Codec ID                                 : A_AC3
Duration                                 : 1 h 58 min
Bit rate mode                            : Constant
Bit rate                                 : 192 kb/s
Channel(s)                               : 2 channels
Channel layout                           : L R
Sampling rate                            : 48.0 kHz
Frame rate                               : 31.250 FPS (1536 SPF)
Compression mode                         : Lossy
Delay relative to video                  : 2 s 0 ms
Stream size                              : 163 MiB (19%)
Title                                    : Türkçe - Filmbol.org
Language                                 : Turkish
Service kind                             : Complete Main
Default                                  : Yes
Forced                                   : No

Audio #2
ID                                       : 3
Format                                   : AAC LC SBR
Format/Info                              : Advanced Audio Codec Low Complexity with Spectral Band Replication
Commercial name                          : HE-AAC
Format settings                          : Explicit
Codec ID                                 : A_AAC-2
Duration                                 : 1 h 58 min
Bit rate                                 : 32.0 kb/s
Channel(s)                               : 2 channels
Channel layout                           : L R
Sampling rate                            : 48.0 kHz
Frame rate                               : 23.438 FPS (2048 SPF)
Compression mode                         : Lossy
Stream size                              : 27.1 MiB (3%)
Title                                    : Orijinal Dil - Filmbol.org
Language                                 : English
Default                                  : No
Forced                                   : No

Text #1
ID                                       : 4
Format                                   : UTF-8
Codec ID                                 : S_TEXT/UTF8
Codec ID/Info                            : UTF-8 Plain Text
Duration                                 : 1 h 52 min
Bit rate                                 : 84 b/s
Count of elements                        : 1504
Stream size                              : 69.5 KiB (0%)
Title                                    : Türkçe - Filmbol.org
Language                                 : Turkish
Default                                  : No
Forced                                   : No

Text #2
ID                                       : 5
Format                                   : UTF-8
Codec ID                                 : S_TEXT/UTF8
Codec ID/Info                            : UTF-8 Plain Text
Duration                                 : 1 h 50 min
Bit rate                                 : 82 b/s
Count of elements                        : 1961
Stream size                              : 66.5 KiB (0%)
Title                                    : Orijinal Dil - Filmbol.org
Language                                 : English
Default                                  : No
Forced                                   : No

Film Detayları


 Güneşin Karanlığında

 Güneşin Karanlığında

 Güneşin Karanlığında


Film Fragmanı


Film İndir


Rar Şifresi: filmbol.org


Uptobox ile indir

1Fichier ile indir

1Fichier'den İndiremiyor musun? Tıklayın!












Şuan Online!
Rapor Et!
Şuan Online!
BroserBros Kurucu Admin
*******
Admin
31.05.2021 Yönetici Notu:

Kırık linkler kontrol edildi, kaldırıldı ve yenilendi. Tüm linkler tamamen çalışır durumda.


Hızlı Menü: